<?xml version="1.0" standalone="no"?>
<!DOCTYPE svg PUBLIC "-//W3C//DTD SVG 1.1//EN" "http://www.w3.org/Graphics/SVG/1.1/DTD/svg11.dtd" >
<svg xmlns="http://www.w3.org/2000/svg">
<metadata>Generated by IcoMoon</metadata>
<defs>
<font id="icomoon" horiz-adv-x="1024">
<font-face units-per-em="1024" ascent="960" descent="-64" />
<missing-glyph horiz-adv-x="1024" />
<glyph unicode="&#x20;" horiz-adv-x="512" d="" />
<glyph unicode="&#xe600;" glyph-name="stm_icon_brain" horiz-adv-x="796" d="M682.212 834.731c-54.841 64-127.317 123.392-306.46 124.7-70.030 0.569-176.868-16.725-260.039-108.601-50.29-55.524-87.381-125.554-76.8-240.185 2.332-24.86 36.295-53.589 12.402-101.604 0 0-51.257-94.265-49.493-109.966 0 0-0.91-28.729 41.586-29.639 0 0 10.638-1.422 7.566-25.884l-0.455-35.612c0 0 1.252-10.638 19.911-17.067 0 0 3.527-3.698-1.764-10.695 0 0-9.785-11.378 7.054-36.068 6.201-8.988 16.384-20.252 10.183-43.52 0 0-7.964-44.772 8.875-55.467 0 0 19.115-23.723 95.972-13.767 26.908 3.47 76.572 17.067 106.155-21.845 0 0 70.713-140.459 76.117-173.682 0 0 120.718 224.54 268.060 259.3 0 0-35.954 84.537 37.092 194.105 0 0 91.42 126.18 94.208 195.47-0.114 0.114 24.064 116.964-90.169 250.027zM496.128 540.672c-55.012 24.69-70.372 90.34-156.9 81.124-102.571-11.093-155.876-3.527-182.67 15.758 15.815 20.366 39.196 43.748 68.551 52.907 26.226 8.192 53.76 3.755 81.92-13.141 6.315-3.868 14.507-1.536 18.204 5.12 3.641 6.656 1.479 15.189-4.949 19.001-34.702 20.935-69.348 26.169-102.969 15.644-34.020-10.695-60.587-35.669-78.791-58.482-9.444 20.252-6.94 46.364-2.674 75.321 13.653 92.501 131.413 154.283 274.375 143.531 109.682-8.135 206.45-65.024 251.506-142.848-11.036 4.665-23.040 7.908-35.897 7.566-30.663-0.967-57.913-20.423-80.896-57.97-3.925-6.428-2.162-15.019 4.039-19.172 6.087-4.096 14.393-2.276 18.318 4.153 17.977 29.298 37.888 44.487 59.278 45.17 20.48 0.398 39.822-11.833 54.386-24.519 3.015-10.24 5.461-20.537 6.656-31.175 16.725-146.148-104.164-157.241-191.488-117.988z" />
<glyph unicode="&#xe601;" glyph-name="stm_icon_handshake" horiz-adv-x="1354" d="M1071.401 336.384c-241.581 246.553-127.802 130.461-258.279 263.862 0 0-39.341 39.986-91.103 16.78-36.319-16.235-83.109-38.417-118.371-55.279-38.78-20.645-72.572-27.004-79.624-27.004-74.769 0-135.432 61.836-135.432 138.124 0 49.466 25.749 92.556 64.099 116.967 53.942 38.103 178.209 105.621 178.209 105.621s-37.805 48.97-120.766 48.97c-82.878 0-256-115.877-256-115.877s-49.152-32.124-119.164-3.221l-134.97 47.979v-478.77c0 0 38.499-11.446 73.133-25.815 7.911 22.693 20.381 43.784 38.004 61.093 57.443 55.891 152.593 56.502 204.883 1.602 15.707-16.632 26.707-36.699 32.355-58.616 21.108-6.656 40.052-18.349 55.445-34.502 15.756-16.483 26.723-36.583 32.405-58.5 21.108-6.706 40.002-18.382 55.461-34.618 17.325-18.135 28.837-40.233 34.304-64.198 21.95-6.54 41.934-18.581 57.955-35.444 31.298-32.851 42.546-77.527 35.741-120.65 0-0.017 0-0.017 0-0.017 0-0.033 0-0.033 0-0.066 0.050-0.083 0.149-0.116 0.231-0.215 1.189-1.338 19.572-22.429 31.232-34.321 23.189-23.717 60.928-23.651 84.133 0 23.123 23.651 23.222 62.183 0 85.867-0.743 0.776-1.668 1.338-2.428 2.048 0.017 0.182 0.116 0.347 0.149 0.512-78.171 79.806-82.234 85.587-74.504 93.448 7.73 7.895 19.175-9.48 106.645-98.833 0.396-0.38 0.958-0.727 1.602-0.991 1.751-2.51 3.501-5.054 5.715-7.267 23.123-23.701 60.911-23.651 84.117 0 23.139 23.651 23.189 62.2 0 85.884-1.222 1.255-2.593 2.23-3.881 3.336-1.156 1.371-2.296 2.725-3.683 4.113-79.806 81.408-88.873 96.884-82.779 103.11 6.937 7.102 44.131-34.552 123.524-115.563 0.165 0 0.347 0.050 0.512 0.050 23.271-21.62 59.442-21.075 81.937 1.85 21.669 22.115 22.825 57.146 3.881 80.979-0.347 1.602-0.958 2.973-1.982 4.030-100.501 102.664-96.19 104.2-90.095 110.394 6.078 6.243 6.54 6.656 104.316-93.167 0.347-0.396 0.611-0.892 1.041-1.305 23.123-23.717 60.928-23.651 84.133 0 23.123 23.635 23.189 62.2 0 85.917-0.727 0.644-1.437 1.090-2.098 1.701zM459.33 117.562c10.884 28.54 7.234 60.532-13.659 82.399-18.779 19.687-46.097 24.89-72.242 18.779 7.3 26.376 3.287 54.454-15.624 74.323-18.845 19.671-46.097 24.824-72.225 18.696 7.218 26.409 3.204 54.503-15.641 74.389-29.58 30.951-80.714 29.613-114.275-3.105-33.412-32.751-54.85-91.962-24.989-126.728 29.795-34.75 63.934-13.642 90.062-7.564-7.218-26.393-28.986-50.952-2.263-85.521 26.69-34.634 63.934-13.659 90.062-7.498-7.284-26.376-28.11-53.364-2.296-85.504 25.947-32.091 68.492-14.997 96.537-6.111-10.835-28.49-34.023-59.062-4.228-93.597 29.729-34.519 98.519-18.465 132.162 14.253 33.577 32.685 36.748 84.497 7.284 115.464-20.315 21.339-50.671 26.294-78.666 17.325zM1141.777 779.099c-24.477-3.501-54.767 10.735-54.767 10.735s-64.727 56.915-137.53 119.461c-59.095 50.705-90.112 48.723-133.186 25.402-70.557-38.251-239.55-135.085-320.677-185.179-29.977-11.033-51.431-40.266-51.431-74.686 0-43.9 34.849-79.525 77.857-79.525 16.599 0 31.942 5.351 44.577 14.402 35.658 17.705 120.039 62.547 176.904 93.201 62.315 33.61 101.062-5.186 101.062-5.186s224.966-228.236 288.206-290.205c41.109-40.184 97.66-21.587 115.729-19.258 18.069 2.296 105.802 19.902 105.802 19.902v418.502c0 0-161.33-40.134-212.546-47.566z" />
<glyph unicode="&#xe602;" glyph-name="stm_icon_net" d="M1022.797 482.133c-16.79 255.594-221.070 459.906-476.664 476.696v1.17h-68.267v-1.17c-255.594-16.79-459.906-221.103-476.696-476.696h-1.17v-68.267h1.17c16.79-255.61 221.103-459.874 476.696-476.664v-1.187h68.267v1.187c255.61 16.79 459.874 221.054 476.664 476.664h1.203v68.267h-1.203zM320.496 848.4c-32.963-43.837-60.335-98.808-80.262-161.467h-102.27c44.503 69.437 107.731 125.611 182.532 161.467zM102.27 618.667h120.003c-9.135-43.122-14.937-88.974-16.807-136.533h-135.899c3.592 48.079 14.937 94.013 32.703 136.533zM69.567 413.867h135.899c1.869-47.608 7.672-93.412 16.807-136.533h-120.003c-17.766 42.52-29.111 88.454-32.703 136.533zM137.964 209.067h102.205c19.944-62.659 47.299-117.597 80.327-161.467-74.801 35.856-138.029 91.981-182.532 161.467zM477.867 8.671c-70.168 18.725-130.601 94.127-167.27 200.395h167.27v-200.395zM477.867 277.333h-186.433c-9.622 42.52-15.685 88.454-17.684 136.533h204.117v-136.533zM477.867 482.133h-204.134c1.999 48.079 8.062 94.013 17.684 136.533h186.449v-136.533zM477.867 686.933h-167.27c36.669 106.301 97.101 181.654 167.27 200.363v-200.363zM886.004 686.933h-102.124c-19.992 62.643-47.332 117.614-80.408 161.467 74.801-35.856 138.045-92.030 182.532-161.467zM546.133 887.296c70.12-18.708 130.601-94.062 167.27-200.363h-167.27v200.363zM546.133 618.667h186.417c9.655-42.52 15.669-88.454 17.717-136.533h-204.134v136.533zM546.133 413.867h204.134c-1.999-48.079-8.062-94.013-17.717-136.533h-186.417v136.533zM546.133 8.671v200.395h167.27c-36.669-106.268-97.15-181.671-167.27-200.395zM703.455 47.6c33.012 43.853 60.416 98.792 80.408 161.467h102.124c-44.471-69.486-107.715-125.611-182.532-161.467zM921.746 277.333h-120.019c9.135 43.122 14.937 88.942 16.807 136.533h135.867c-3.608-48.079-14.937-94.013-32.654-136.533zM818.534 482.133c-1.869 47.575-7.688 93.412-16.807 136.533h120.019c17.717-42.52 29.046-88.454 32.67-136.533h-135.883z" />
<glyph unicode="&#xe603;" glyph-name="stm_icon_linkedin" d="M550.633 498.176v1.443c-0.372-0.512-0.745-1.024-0.977-1.443h0.977zM948.364 960.047h-872.727c-41.751 0-75.636-32.861-75.636-73.402v-877.242c0-40.541 33.885-73.402 75.636-73.402h872.727c41.798 0 75.636 32.908 75.636 73.402v877.242c0 40.495-33.839 73.402-75.636 73.402zM310.412 102.865h-154.671v462.336h154.717v-462.336zM233.1 628.317h-1.071c-51.852 0-85.504 35.514-85.504 79.919 0 45.335 34.63 79.872 87.505 79.872s85.457-34.49 86.481-79.872c0.047-44.404-33.513-79.919-87.412-79.919zM868.166 102.865h-154.717v247.343c0 62.138-22.342 104.541-78.289 104.541-42.822 0-68.236-28.579-79.36-56.227-4.189-9.868-5.167-23.692-5.167-37.469v-258.234h-154.624c0 0 2.001 418.956 0 462.336h154.624v-65.536c20.527 31.511 57.251 76.428 139.357 76.428 101.841 0 178.176-66.048 178.176-208.105v-265.076z" />
<glyph unicode="&#xe604;" glyph-name="stm_icon_pin" horiz-adv-x="666" d="M568.371 871.27c-64.87 59.136-143.36 88.73-235.571 88.73s-170.701-29.594-235.571-88.73c-64.819-59.238-97.229-130.662-97.229-214.477 0-50.534 27.75-135.014 83.2-253.338 55.45-118.374 110.95-226.048 166.4-323.174 55.45-97.024 83.2-144.282 83.2-141.619 8.653 14.643 20.531 34.611 35.635 59.853 15.155 25.293 41.728 72.806 79.974 142.643 38.195 69.786 71.68 133.99 100.506 192.512s55.501 118.989 79.974 181.555c24.474 62.413 36.71 109.67 36.71 141.568 0 83.814-32.41 155.238-97.229 214.477zM404.122 592.947c-20.173-18.586-44.339-27.904-72.397-27.904s-52.224 9.318-72.397 27.904c-20.173 18.637-30.259 40.909-30.259 66.867 0 25.907 10.086 47.923 30.259 65.792 20.122 17.971 44.288 26.931 72.397 26.931s52.275-8.96 72.397-26.931c20.224-17.92 30.259-39.885 30.259-65.792-0.051-25.958-10.086-48.23-30.259-66.867z" />
<glyph unicode="&#xe605;" glyph-name="stm_icon_market_research" horiz-adv-x="1038" d="M0 2.702h183.083v543.673h-183.083v-543.673zM1036.7 40.846l-218.539 220.516-28.359-17.493-43.051 42.126c67.257 95.204 59.25 227.954-25.387 313.316-5.774 5.831-12.373 10.268-18.588 15.346v345.358h-182.955v-292.082c-26.638-3.413-52.48-11.335-76.985-23.737v88.789h-182.812v-730.325h182.784v207.289c24.505-12.345 50.389-20.295 76.985-23.694v-183.552h182.955v214.556l28.174-27.435-16.242-32.868 218.567-220.345c0 0 47.531-0.612 76.16 32.384 28.814 33.024 27.292 71.851 27.292 71.851zM681.998 294.3c-72.562-73.188-190.464-73.273-263.182 0.1-72.718 73.216-72.633 192.156 0.213 265.472 72.377 73.301 190.421 73.344 263.111 0.043 72.59-73.358 72.633-192.028-0.142-265.614z" />
<glyph unicode="&#xe606;" glyph-name="stm_icon_medal_one" horiz-adv-x="764" d="M419.011 434.395c-10.533 6.485-22.691 10.484-35.807 10.484-14.612 0-28.201-4.616-39.497-12.532-30.622 302.194-343.706 406.073-343.706 406.073l59.034-195.031c137.947-80.538 227.686-181.817 265.964-230.384-7.981-11.995-12.743-26.51-12.743-42.26 0-4.356 0.536-8.631 1.235-12.808-80.506-30.037-138.386-110.251-138.386-204.556 0-119.857 93.347-217.364 208.083-217.364s208.116 97.508 208.116 217.364c0 94.306-57.88 174.519-138.386 204.556 0.699 4.177 1.235 8.468 1.235 12.808 0 16.872-5.624 32.248-14.694 44.698 39.335 49.493 128.325 148.691 264.013 227.929l59.034 195.048c0 0-311.654-103.391-343.495-404.025zM406.008 17.871h-45.609v149.439l-31.354-32.735-32.248 33.662 109.21 114.087v-264.452zM375.662 838.42c129.528 4.356 208.327-36.311 232.676-51.184 30.476 19.927 82.261 48.518 155.599 70.884 0 0-141.019 101.88-380.717 101.88s-380.717-101.88-380.717-101.88c68.462-23.845 116.232-49.103 146.139-67.568 29.468 16.79 106.106 51.931 227.019 47.868zM575.927 763.425l-0.146-0.065h0.065l0.081 0.065z" />
<glyph unicode="&#xe607;" glyph-name="stm_icon_mountain_biking" d="M106.673 584.561l196.267 238.92c-68.267 34.133-217.607-29.873-251.74-123.74-29.86-76.786 55.473-115.18 55.473-115.18zM509.829 418.85c-3.809 11.373-12.602 19.866-23.402 24.753v0.137l-0.614 0.273c-1.092 0.464-1.789 1.42-2.963 1.789l-5.83 1.939-139.96 60.020 135.646 164.386 281.805-93.949c4.492-1.475 9.066-2.171 13.489-2.171 17.872 0 34.502 11.305 40.455 29.191 7.468 22.364-4.615 46.49-26.965 53.985l-269.244 89.689c48.579 10.008 85.088 52.975 85.088 104.462 0 58.914-47.746 106.673-106.673 106.673s-106.673-47.746-106.673-106.673c0-27.307 10.581-51.965 27.471-70.833l-13.995 4.669c-0.928 0.3-1.871 0.096-2.813 0.341-2.69 1.092-4.956 1.83-6.39 1.83-1.925 0-3.796-0.246-5.734-0.314-1.188-0.041-2.335-0.041-3.495-0.246-18.173-1.188-35.922-6.185-50.504-20.767-21.34-25.6-38.42-42.667-64.007-72.54-46.94-55.446-72.54-89.58-93.867-115.193-8.533-12.834-38.38-59.747-17.053-98.167 21.34-34.12 55.46-51.186 102.4-64.007 33.314-11.087 124.245-40.195 183.856-59.201l74.356-223.082c5.939-17.845 22.596-29.177 40.455-29.177 4.41 0 8.998 0.751 13.489 2.212 22.255 7.455 34.42 31.58 26.965 53.958l-85.292 256.014zM192.007 320.014c-106.673 0-192.007-85.333-192.007-191.993 0-106.673 85.333-192.007 192.007-192.007s192.007 85.333 192.007 192.007c-0.014 106.66-85.347 191.993-192.007 191.993zM192.007 0.007c-72.54 0-128 55.473-128 128.014s55.46 127.986 128 127.986c72.54 0 128-55.46 128-127.986 0-72.54-55.473-128.014-128-128.014zM832.007 490.68c-106.673 0-192.007-85.333-192.007-192.007s85.333-192.007 192.007-192.007 191.993 85.347 191.993 192.007-85.333 192.007-191.993 192.007zM832.007 170.687c-72.54 0-128 55.46-128 127.986 0 72.54 55.473 128 128 128s128-55.46 128-128c0-72.527-55.473-127.986-128-127.986z" />
<glyph unicode="&#xe608;" glyph-name="stm_icon_paint_palette" horiz-adv-x="1166" d="M1096.074 649.255c-62.212 143.959-274.038 326.514-561.42 298.441-390.302-38.187-566.162-400.731-524.855-504.407 32.642-81.92 98.525-133.482 186.258-133.482 19.125 0 37.305 3.545 54.24 9.893 28.625 10.791 72.672 31.791 103.172 27.459 41.275-5.876 90.207-26.608 90.207-92.381 0-31.067-26.64-74.106-37.73-103.077-6.695-17.376-10.35-36.171-10.35-55.926 0-88.237 71.144-159.776 158.909-159.776 14.178 0 32.122 5.010 48.506 11.091 25.978 9.515 70.688 22.56 101.218 27.144 410.293 61.598 540.325 331.461 391.845 675.021zM288.169 498.113c-29.113-14.966-69.648 6.018-90.38 46.899-20.685 40.928-13.816 86.189 15.344 101.155 29.255 14.919 69.679-6.018 90.411-46.962 20.779-40.897 13.848-86.142-15.376-101.092zM456.483 659.905c-32.736-1.292-60.857 34.816-62.622 80.628-1.875 45.875 23.237 84.126 55.973 85.433 32.736 1.323 60.778-34.753 62.669-80.66 1.78-45.812-23.284-84.047-56.021-85.402zM657.44 63.827c-63-7.152-118.138 23.836-123.29 69.285-5.088 45.481 41.748 88.174 104.7 95.374 63.015 7.136 118.138-23.899 123.227-69.348 5.183-45.45-41.669-88.127-104.637-95.311zM757.539 721.392c-16.431-42.835-54.524-67.899-85.134-56.021-30.531 11.926-41.952 56.225-25.6 99.029 16.431 42.819 54.587 67.899 85.181 55.989 30.562-11.831 41.984-56.162 25.553-98.997zM835.71 566.091c-23.584 22.922-17.093 68.214 14.62 101.234 31.649 33.036 76.516 41.228 100.084 18.337 23.599-22.843 17.077-68.167-14.714-101.25-31.697-33.020-76.485-41.228-99.99-18.322zM996.336 345.821c-37.053-26.908-82.519-27.018-101.738-0.315-19.172 26.687-4.789 70.183 32.232 97.044 36.927 26.939 82.487 27.049 101.66 0.331 19.22-26.687 4.899-70.12-32.154-97.059z" />
<glyph unicode="&#xe609;" glyph-name="stm_icon_phone" d="M994.782 187.699l-208.828 123.699h-1.092c-7.168 4.301-16.93 6.554-29.218 6.554-17.34 0-32.495-5.803-45.466-17.408l-61.577-62.874c-1.434-1.434-3.823-2.731-7.1-3.823-3.209-1.161-5.598-1.638-7.031-1.638l-13.517 2.731c-9.079 1.775-21.982 7.1-38.912 15.701s-37.956 22.255-63.215 40.619c-25.259 18.5-54.067 44.305-86.494 77.619-33.178 32.427-58.778 61.235-76.8 86.221s-31.334 46.080-40.004 63.488c-10.103 19.524-16.589 36.864-19.456 52.087 0 2.116 0.546 4.847 1.638 8.124s2.321 5.598 3.823 7.1l52.975 53.111c9.353 9.421 15.497 21.026 18.364 34.748s1.092 26.419-5.393 37.956l-115.78 220.092c-5.052 7.987-11.196 14.677-18.432 20.070-7.168 5.461-15.497 8.124-24.849 8.124-12.971 0-24.508-5.052-34.611-15.155l-143.906-144.316c-7.168-6.485-13.312-15.019-18.364-25.463s-8.329-20.821-9.762-30.925c0-1.434-0.341-8.67-1.092-21.641-0.683-13.039 0.751-30.993 4.369-53.794 3.55-22.733 10.445-49.835 20.548-81.306s25.259-66.56 45.466-105.199c20.139-38.707 46.899-80.896 80.009-126.43s75.025-93.252 125.474-143.223c63.488-64.307 123.358-114.961 179.541-151.893 56.252-36.864 106.564-64.512 150.869-82.944 44.305-18.5 81.783-29.969 112.435-34.748 30.72-4.574 52.907-6.963 66.628-6.963 5.803 0 10.445 0.205 14.063 0.614 3.618 0.341 5.803 0.546 6.485 0.546 10.103 1.434 20.412 4.642 30.857 9.762s18.91 11.196 25.395 18.5l143.838 143.155c12.288 12.356 17.34 26.829 15.223 43.418-2.935 14.336-11.947 26.283-27.102 35.703z" />
<glyph unicode="&#xe60a;" glyph-name="stm_icon_fax" horiz-adv-x="1092" d="M273.067-64h546.133v341.333h-546.133v-341.333zM341.333 209.067h409.6v-68.267h-409.6v68.267zM341.333 72.533h409.6v-68.267h-409.6v68.267zM819.2 960h-546.133v-341.265h546.133v341.265zM955.733 755.2h-68.267v-204.8h-682.667v204.8h-68.267c-68.267 0-136.533-68.267-136.533-136.465v-341.402c0-68.267 68.267-136.533 136.533-136.533h68.267v204.8h682.667v-204.8h68.267c68.267 0 136.533 68.267 136.533 136.533v341.402c0 68.198-68.267 136.465-136.533 136.465z" />
<glyph unicode="&#xe60b;" glyph-name="stm_icon_seo_monitoring" horiz-adv-x="1133" d="M1064.264 960.014h-995.26c-37.997 0-69.004-31.266-69.004-69.318v-719.394c0-38.052 31.007-69.318 69.004-69.318h995.26c37.943 0 68.963 31.266 68.963 69.318v719.394c0 38.052-31.007 69.318-68.963 69.318zM1046.883 222.283h-960.594v640.478h960.594v-640.478zM438.9 69.024l-130.225-133.011h517.734l-130.266 133.011h-257.242zM232.98 350.706c25.463 0 46.162 20.767 46.162 46.367 0 4.71-0.901 9.148-2.198 13.421 58.6 47.541 161.778 130.949 209.661 168.086 7.55-5.407 16.725-8.67 26.706-8.67 8.247 0 15.879 2.348 22.583 6.158 30.379-25.982 81.579-69.755 118.224-101.089-0.505-2.758-0.86-5.571-0.86-8.479 0-25.696 20.712-46.449 46.217-46.449 25.491 0 46.217 20.767 46.217 46.449 0 4.628-0.874 9.011-2.13 13.216l118.62 107.629c6.417-3.4 13.626-5.502 21.381-5.502 25.491 0 46.162 20.767 46.162 46.394 0 25.641-20.671 46.408-46.162 46.408-25.504 0-46.162-20.767-46.162-46.408 0-6.13 1.256-11.947 3.4-17.312-33.109-30.037-84.227-76.431-116.272-105.527-7.223 4.697-15.811 7.496-25.054 7.496-10.909 0-20.78-3.959-28.699-10.295-30.447 26.010-79.421 67.857-114.319 97.676 1.843 5.024 3.004 10.377 3.004 16.029 0 25.655-20.657 46.394-46.162 46.394s-46.162-20.753-46.162-46.394c0-5.68 1.161-11.046 3.004-16.070l-210.958-165.014c-7.455 5.175-16.466 8.247-26.201 8.247-25.504 0-46.162-20.767-46.162-46.408 0.014-25.573 20.671-46.353 46.162-46.353z" />
<glyph unicode="&#xe60c;" glyph-name="stm_icon_seo_performance_up" horiz-adv-x="996" d="M995.556 742.727l-252.274 217.301-252.302-217.301h138.055c-46.492-281.984-310.286-501.362-610.475-454.713-13.212 2.062-18.56-15.516-5.575-19.954 373.589-128.412 803.996 82.574 866.247 474.667h116.324zM586.624-63.986h129.138v442.368c-38.784-35.413-82.148-66.261-129.138-92.075v-350.293zM392.917-63.986h129.138v319.076c-41.031-17.308-84.224-30.905-129.138-40.434v-278.642zM780.331 446.848v-510.834h129.138v774.827h-3.257c-20.267-98.901-64.27-188.402-125.881-263.993zM5.518-63.986h129.138v270.151c-43.847 6.315-87.040 16.484-129.138 30.748v-300.9zM199.225 199.765v-263.751h129.138v267.932c-29.369-3.527-59.292-5.376-89.7-5.376-13.184 0-26.34 0.484-39.438 1.195z" />
<glyph unicode="&#xe60d;" glyph-name="stm_icon_user" d="M548.437 356.523c136.789 0 247.637 137.813 247.637 307.712s-110.933 295.851-247.637 295.851-247.552-125.952-247.552-295.851 110.763-307.712 247.552-307.712zM1005.995 42.667l-21.419 48.555c0 0-52.224 136.789-118.101 214.699-39.509 46.421-82.944 37.291-111.445 22.528-19.029-9.984-40.192-38.656-56.064-53.419-21.675-20.309-60.331-43.349-123.307-44.715h-38.656c-62.976 1.365-101.547 24.405-123.392 44.629-15.872 14.848-37.547 42.667-56.747 52.139-31.147 15.701-79.275 26.624-119.723-21.163-65.877-77.909-123.819-212.224-123.819-212.224l-20.907-49.493c-8.619-20.224-17.237-56.405-4.779-74.325 23.125-33.109 75.605-29.44 75.605-29.44h778.155c0 0 48.64-4.352 70.315 28.075 12.288 18.091 3.243 54.101-5.717 74.155z" />
<glyph unicode="&#xe60e;" glyph-name="stm_icon_guitar" horiz-adv-x="1051" d="M206.083 262.752l134.226-132.765 39.663 39.226-134.253 132.751-39.636-39.212zM1042.664 861.873l-94.904 93.853c-8.643 4.273-21.572 4.273-30.215 0l-34.502-34.12-17.258 17.080-12.943-21.34 17.271-17.067-17.271-17.067-21.586 17.067-17.244-17.067 17.244-17.067-34.502-34.133c-8.643-8.533-8.643-21.327 0-29.873l-145.995-144.384c-45.78 30.788-96.638 46.271-143.073 46.271-47.459 0-90.617-17.080-125.119-46.94-17.271-17.080-34.516-42.667-38.83-68.28-17.258-51.2-64.717-85.333-116.504-85.333-60.402 0-112.176-21.34-155.307-59.733-99.232-98.127-77.647-277.313 47.459-396.793 73.346-72.54 163.936-110.933 245.924-110.933 60.402 0 116.49 21.34 159.648 59.733 38.83 38.393 60.389 93.867 60.389 153.6 0 55.473 34.516 102.4 86.303 115.207 25.873 8.547 47.459 21.34 69.045 38.407 65.727 65.058 63.42 175.991 0.887 265.448l145.79 144.152c8.629-8.533 21.559-8.533 30.201 0l34.516 34.133 17.244-17.067 17.258 17.067-17.258 17.067 17.258 17.053 17.258-12.78 17.271 17.067-17.271 17.067 38.83 29.86c8.629 8.52 8.629 21.313-0.014 29.846zM693.193 349.873c-12.93-12.793-25.887-17.080-43.145-25.6-77.66-21.34-129.434-93.88-133.734-179.2 0-29.873-8.643-72.54-43.145-106.673-34.502-34.12-81.961-42.653-112.176-42.653-69.045 0-142.377 34.12-198.479 89.607-99.232 98.127-120.791 234.66-47.459 307.2 34.502 34.133 77.66 42.653 107.848 42.653 86.303 0 155.334 55.473 181.207 132.273 4.314 17.067 12.943 29.873 25.887 42.667 25.887 25.614 56.074 29.873 77.66 29.873 32.768 0 65.55-10.281 96.147-28.658l-123.344-121.993c-5.216 0.778-10.513 1.324-15.947 1.324-59.569 0-107.875-47.773-107.875-106.673 0-58.914 48.305-106.673 107.848-106.673 59.569 0 107.861 47.746 107.861 106.66 0 5.379-0.532 10.595-1.324 15.77l122.962 121.597c37.82-62.751 39.718-131.454-0.792-171.5zM844.213 814.933l90.617 89.607 17.244-17.067-90.604-89.607-17.258 17.067zM900.287 759.473l-17.258 17.067 90.617 89.607 17.258-17.067-90.617-89.607z" />
<glyph unicode="&#xe60f;" glyph-name="stm_icon_add_user" horiz-adv-x="1075" d="M665.395 195.021c-133.939 51.098-176.742 94.208-176.742 186.522 0 55.45 40.858 37.325 58.829 138.803 7.475 42.138 43.622 0.717 50.483 96.819 0 38.298-19.763 47.872-19.763 47.872s10.035 56.627 13.926 100.301c4.966 54.272-29.952 194.662-215.808 194.662-185.907 0-220.723-140.39-215.91-194.765 3.942-43.622 13.978-100.301 13.978-100.301s-19.712-9.523-19.712-47.821c6.912-96.102 43.059-54.63 50.483-96.819 17.971-101.427 58.88-83.354 58.88-138.803 0-92.314-42.803-135.424-176.742-186.522-16.128-6.144-54.579-15.77-87.245-30.72v-228.25h860.16c0 0 0 84.122 0 119.757s-60.467 87.962-194.816 139.264zM913.92 504.883v170.701h-107.52v-170.701h-161.28v-113.766h161.28v-170.701h107.52v170.752h161.28v113.715h-161.28z" />
<glyph unicode="&#xe610;" glyph-name="stm_icon_aps" d="M347.3 668.051c-25.9 0-43.513-2.54-52.634-5.106v-166.571c10.909-2.54 24.221-3.331 42.626-3.331 67.802 0 109.677 34.311 109.677 92.092-0.068 51.855-36.086 82.917-99.669 82.917zM961.318 960.014h-898.608c-34.639 0-62.71-28.017-62.71-62.614v-898.69c0-34.57 28.071-62.696 62.71-62.696h898.608c34.57 0 62.682 28.126 62.682 62.696v898.69c0 34.598-28.112 62.614-62.682 62.614zM521.339 454.513c-43.445-41.015-107.984-59.433-183.173-59.433-16.821 0-31.853 0.806-43.554 2.526v-201.824h-126.457v556.742c39.363 6.649 94.563 11.674 172.483 11.674 78.589 0 134.745-15.032 172.332-45.22 36.14-28.495 60.361-75.38 60.361-130.608-0.014-55.255-18.5-102.018-51.992-133.857zM711.912 187.467c-53.699 0-101.321 11.633-132.342 28.467l22.555 91.204c23.456-14.131 72.008-30.911 109.786-30.911 38.366 0 54.327 13.339 54.327 34.352 0 20.89-12.547 30.925-60.17 46.899-84.541 28.399-117.241 74.479-116.422 123.044 0 76.076 65.249 133.994 166.571 133.994 47.732 0 90.399-10.977 115.466-23.443l-22.555-87.941c-18.377 10.076-53.521 23.388-88.774 23.388-30.87 0-48.374-12.534-48.374-33.464 0-19.238 15.729-29.259 66-46.927 77.838-26.733 110.537-66.096 111.275-126.266 0-76.281-60.348-132.396-177.343-132.396z" />
<glyph unicode="&#xe611;" glyph-name="stm_icon_chevron_right" horiz-adv-x="683" d="M656.043 507.819l-492.373 429.141c-17.749 15.445-40.96 23.125-64.085 23.125-23.211 0-46.421-7.68-64.171-23.125-35.413-30.976-35.413-80.981 0-111.787l428.288-373.163-428.203-373.248c-35.499-30.805-35.499-80.811 0-111.787 35.413-30.805 92.843-30.805 128.256 0l492.373 429.056c16.981 14.848 26.539 34.987 26.539 55.979 0 20.907-9.472 41.045-26.624 55.808z" />
<glyph unicode="&#xe612;" glyph-name="stm_icon_chevron_left" horiz-adv-x="683" d="M218.965 451.925l428.288 373.248c35.413 30.805 35.413 80.811 0 111.787-17.749 15.445-40.96 23.040-64.171 23.040-23.125 0-46.421-7.595-64.085-23.040l-492.459-429.141c-17.067-14.848-26.539-34.901-26.539-55.893 0-20.907 9.557-40.96 26.539-55.808l492.459-429.056c35.328-30.891 92.843-30.891 128.171 0 35.499 30.891 35.499 80.811 0 111.787l-428.203 373.077z" />
<glyph unicode="&#xe613;" glyph-name="stm_icon_viral_marketing" d="M511.941 801.368c43.813 0 79.345 35.533 79.345 79.301 0 43.813-35.547 79.345-79.345 79.345-43.769 0-79.301-35.533-79.301-79.345 0-43.769 35.518-79.301 79.301-79.301zM511.941 94.618c-43.769 0-79.301-35.474-79.301-79.287 0-43.827 35.533-79.301 79.301-79.301 43.813 0 79.345 35.474 79.345 79.301 0 43.813-35.547 79.287-79.345 79.287zM944.655 527.316c-43.856 0-79.404-35.518-79.404-79.345 0-43.813 35.547-79.36 79.404-79.36 43.813 0 79.345 35.547 79.345 79.36 0 43.827-35.533 79.345-79.345 79.345zM158.691 447.971c0 43.827-35.533 79.345-79.345 79.345s-79.345-35.518-79.345-79.345c0-43.813 35.533-79.36 79.345-79.36s79.345 35.547 79.345 79.36zM745.633 214.352l-19.061 65.448-15.784-15.609-76.259 76.259c22.528 26.331 36.601 59.977 38.4 96.9h109.7v-22.162l59.86 32.827-59.86 32.827v-22.148h-109.978c-2.984 36.147-17.905 68.827-40.77 94.281l78.907 78.921 15.784-15.755 19.061 65.565-65.521-19.076 15.653-15.711-79.053-79.053c-25.659 21.957-58.251 35.899-94.091 38.254v112.508h22.177l-32.914 59.919-32.783-59.919h22.235v-112.494c-35.869-2.326-68.52-16.267-94.208-38.239l-79.024 79.038 15.755 15.711-65.521 19.076 19.105-65.565 15.755 15.755 78.833-78.863c-22.908-25.468-37.844-58.178-40.828-94.34h-109.831v22.148l-59.86-32.827 59.86-32.827v22.162h109.524c1.799-36.923 15.872-70.568 38.4-96.9l-76.244-76.259-15.755 15.609-18.973-65.492 65.521 19.003-15.755 15.799 76.112 76.142c26.127-23.464 59.86-38.473 97.119-40.901v-107.037h-22.235l32.783-59.816 32.914 59.816h-22.177v107.052c37.244 2.458 70.949 17.481 97.046 40.945l76.186-76.2-15.74-15.755 65.536-19.017zM873.984 697.856c30.983 31.027 30.983 81.247 0.044 112.187-30.983 30.969-81.232 31.013-112.26 0-30.939-30.939-30.852-81.276 0-112.187 30.939-30.983 81.189-30.983 112.216 0zM149.928 198.144c-31.027-30.939-30.939-81.291 0-112.23 30.939-30.983 81.189-31.027 112.172 0.044 30.939 30.896 30.939 81.291 0 112.128-30.939 31.071-81.189 31.071-112.172 0.059zM817.854 221.36c-43.769 0-79.316-35.489-79.316-79.316 0-43.813 35.547-79.316 79.316-79.316 43.798 0 79.345 35.504 79.345 79.316 0 43.827-35.547 79.316-79.345 79.316zM205.97 674.597c43.871 0 79.389 35.533 79.389 79.36 0 43.842-35.533 79.389-79.389 79.389-43.813 0-79.331-35.547-79.331-79.389 0-43.827 35.518-79.36 79.331-79.36z" />
<glyph unicode="&#xe614;" glyph-name="stm_icon_yoga" horiz-adv-x="519" d="M492.185 313.444l-13.113 6.503-121.43 91.335 29.563 146.605 120.047 158.893c11.397 15.067 11.397 35.867 0 50.934l-128.239 169.745c-14.176 18.711-40.987 22.555-59.818 8.471-18.871-14.043-22.714-40.641-8.524-59.405l108.956-144.264-67.331-89.128c-22.422-19.084-54.485-38.181-92.971-38.181-45.721 0-95.312 47.144-120.287 74.393l-40.002 52.916 108.996 144.264c14.19 18.764 10.346 45.362-8.538 59.405-18.884 14.097-45.654 10.253-59.844-8.471l-128.239-169.731c-11.41-15.067-11.41-35.867 0-50.934l119.688-158.401v-367.776l0.851-0.745c0.093-2.607-0.519-5.054 0-7.66l42.742-212.167c3.963-20.108 21.89-34.031 41.851-34.031 2.779 0 5.599 0.266 8.365 0.838 23.206 4.601 38.22 26.97 33.566 50.016l-40.667 201.648 41.519 129.41 125.58-55.003-108.478-80.79c-18.884-14.057-22.688-40.654-8.538-59.392 8.365-11.104 21.158-16.903 34.231-16.903 8.937 0 17.9 2.726 25.587 8.498l170.995 127.295c11.849 8.817 18.272 23.113 16.929 37.755-1.37 14.575-10.213 27.462-23.446 34.058zM173.841 742.26c0-46.838 38.3-84.886 85.484-84.886 47.17 0 85.497 38.034 85.497 84.886s-38.314 84.859-85.497 84.859c-47.184 0-85.484-38.021-85.484-84.859z" />
<glyph unicode="&#xe615;" glyph-name="stm_icon_youtube_play" horiz-adv-x="1536" d="M1306.432 960h-1076.928c-126.784 0-229.504-97.92-229.504-218.752v-586.496c0-120.832 102.72-218.752 229.504-218.752h1076.928c126.848 0 229.568 97.92 229.568 218.752v586.496c0 120.832-102.72 218.752-229.568 218.752zM614.4 200.576v550.912l438.656-275.456-438.656-275.456z" />
<glyph unicode="&#xe616;" glyph-name="stm_icon_book_black" horiz-adv-x="715" d="M610.515 960h-505.872c-57.799 0-104.643-46.373-104.643-103.57v-743.57c0-57.198 46.844-103.554 104.643-103.554h19.862v-54.808c0-6.307 3.43-12.19 9.005-15.327 5.526-3.137 12.353-3.137 17.896 0.098l84.261 48.681 84.261-48.681c5.526-3.235 12.353-3.235 17.928-0.065 5.559 3.202 8.988 9.021 8.988 15.344v54.808h263.737c57.783 0 104.643 46.405 104.643 103.57v743.505c-0.114 57.198-46.941 103.57-104.708 103.57zM184.174 748.471c0 16.807 13.751 30.411 30.736 30.411h284.103c16.985 0 30.736-13.605 30.736-30.411v-67.405c0-16.839-13.751-30.444-30.736-30.444h-284.103c-16.985 0-30.736 13.605-30.736 30.444v67.405zM640.211 117.508c0-19.456-15.945-35.304-35.694-35.304h-257.739v26.234c0 19.423-15.945 35.336-35.645 35.336h-150.999c-19.667 0-35.661-15.766-35.661-35.336v-26.234h-15.181c-19.667 0-35.645 15.734-35.645 35.304v37.563c0 19.505 15.945 35.352 35.645 35.352h495.21c19.716 0 35.694-15.848 35.694-35.352v-37.563z" />
<glyph unicode="&#xe617;" glyph-name="stm_icon_book_stack" horiz-adv-x="1360" d="M1255.808 650.672c-5.44 39.872-6.192 108.56 31.712 131.616 0.688 0.416 1.168 1.024 1.776 1.552 31.024 9.696 52.448 23.28 35.632 41.584l-457.44 134.576-740.672-100.56c0 0-84.816-11.84-77.248-140.512 4.112-70.032 26.608-104.432 46.288-121.36l-60.784-17.888c-16.88-18.304 4.592-31.888 35.6-41.568 0.592-0.544 1.088-1.152 1.776-1.568 37.904-23.104 37.184-91.76 31.728-131.664-136.176-37.744-87.296-50.032-87.296-50.032l29.872-7.072c-21.008-18.528-41.888-53.68-37.968-120.368 7.584-128.672 77.248-137.536 77.248-137.536l484.704-153.84 731.584 173.024c0 0 48.928 12.336-87.28 50.096-5.488 39.808-6.256 108.464 31.744 131.632 0.688 0.416 1.2 1.024 1.776 1.552 31.008 9.68 52.432 23.264 35.568 41.568l-31.776 9.376c21.216 12.464 53.072 45.136 58.048 129.888 3.472 58.336-12.112 92.48-30.144 112.592l62.848 14.848c-0.016-0.048 48.896 12.304-87.296 50.064zM643.856 652.304l600.72 120.576c-19.776-35.376-18.976-83.792-15.68-114.896 0.72-7.040 1.552-13.488 2.352-18.352l-592.56-143.952 5.168 156.624zM115.392 527.088l600.704-120.576 5.12-156.656-592.48 143.952c0.784 4.912 1.616 11.312 2.352 18.368 3.264 31.12 4.112 79.552-15.696 114.912zM91.328 725.104c-0.752 34.24 5.488 58.992 18.112 71.568 8.032 8.032 17.52 9.696 24.016 9.696 3.424 0 5.904-0.448 6.080-0.448l478.384-152.304-5.216-157.712-470.272 128.72c-0.864 0.256-2.032 0.4-2.944 0.432-1.856 0.16-46.016 4.112-48.16 100.048zM571.888 4.336l-470.256 128.736c-0.864 0.24-2.032 0.4-2.944 0.432-1.872 0.144-46.048 4.096-48.192 100.032-0.752 34.272 5.52 59.008 18.112 71.6 8.048 8.032 17.536 9.696 24.032 9.696 3.44 0 5.904-0.464 6.080-0.464l478.336-152.32-5.168-157.712zM1188.096 166.432c0.736-7.056 1.568-13.472 2.336-18.368l-592.56-143.968 5.184 156.656 126.688 25.44 18.72-4.416 70.096 22.272 385.248 77.296c-19.84-35.376-18.992-83.808-15.712-114.912zM1220.736 379.312c-1.072-0.016-2.16-0.16-3.2-0.464l-470.224-128.736-5.184 157.712 477.696 152.128c0.032 0.016 17.76 3.856 30.8-9.056 12.592-12.592 18.864-37.344 18.096-71.568-2.192-95.904-46.384-99.888-47.984-100.016z" />
<glyph unicode="&#xe618;" glyph-name="stm_icon_ecommerce_cart" horiz-adv-x="1331" d="M1166.387 291.379l156.877 447.232c7.885 21.504 1.946 34.406-4.403 43.008-16.23 21.811-49.715 22.016-56.218 22.016l-886.63 0.205-23.654 106.906c-6.349 25.242-25.242 49.306-63.283 49.306h-249.19c-25.856 0-39.885-11.52-39.885-34.509v-61.747c0-22.272 13.978-28.006 40.755-28.006h210.381l161.024-651.162c-25.6-25.856-39.475-63.437-39.475-98.509 0-77.312 64.563-148.429 146.995-148.429 77.875 0 136.243 69.478 145.715 110.95h313.6c9.472-41.472 56.678-112.589 145.613-112.589 81.101 0 146.944 66.918 146.944 143.974 0 76.698-48.947 144.691-146.125 144.691-40.448 0-88.371-20.685-110.643-51.814h-385.28c-27.955 41.421-66.15 54.272-104.806 55.757l-5.274 27.085h586.291c44.186 0 52.89 15.36 60.672 35.635zM1125.786 134.349c30.515 0 55.194-23.552 55.194-52.582s-24.781-52.582-55.194-52.582c-30.515 0-55.296 23.552-55.296 52.582s24.832 52.582 55.296 52.582zM574.362 81.715c0-29.338-25.037-53.248-55.808-53.248-30.822 0.051-55.91 23.91-55.91 53.248 0 29.389 25.088 53.299 55.91 53.299 30.771 0 55.808-23.91 55.808-53.299z" />
<glyph unicode="&#xe619;" glyph-name="stm_icon_certificate" horiz-adv-x="634" d="M366.998 99.986v-163.97l50.046 50.176 50.030-50.176v163.97c-16.66-6.697-33.369-10.029-50.030-10.029-16.693 0-33.369 3.332-50.046 10.029zM417.044 290.71c-46.064 0-83.415-37.449-83.415-83.643s37.352-83.643 83.415-83.643 83.399 37.449 83.399 83.643-37.335 83.643-83.399 83.643zM467.074 725.748h166.831l-200.184 234.252v-200.769c0-20.090 16.693-33.483 33.353-33.483zM400.351 759.231v200.769h-333.629c-36.701 0-66.723-30.119-66.723-66.918v-769.674c0-36.815 30.021-66.934 66.723-66.934h266.906v70.282c-20.009 20.057-33.369 50.192-33.369 80.295 0 63.586 53.378 117.142 116.785 117.142 63.374 0 116.769-53.557 116.769-117.142 0-33.467-13.328-60.237-33.369-80.295v-70.282h66.723c36.701 0 66.723 30.135 66.723 66.934v568.889h-166.814c-36.685 0-66.723 30.119-66.723 66.934zM100.092 826.149h233.553v-33.451h-233.553v33.451zM100.092 725.748h233.553v-33.451h-233.553v33.451zM533.813 391.111h-433.721v33.467h433.721v-33.467zM533.813 491.512h-433.721v33.467h433.721v-33.467zM533.813 591.896h-433.721v33.483h433.721v-33.483z" />
<glyph unicode="&#xe61a;" glyph-name="stm_icon_climbing" d="M395.914 785.546c23.497 0 43.866 8.649 61.149 25.96 17.27 17.311 25.918 37.75 25.918 61.274 0 23.538-8.649 43.977-25.918 61.288-17.283 17.311-37.653 25.96-61.149 25.96s-43.88-8.649-61.149-25.96c-17.283-17.311-25.918-37.75-25.918-61.288 0-23.524 8.635-43.963 25.918-61.274 17.27-17.311 37.667-25.96 61.149-25.96zM60.112 540.451c13.824-8.317 24.88-5.535 33.169 8.317l130.588 224.325c8.289 13.838 4.843 24.922-10.365 33.225l-41.458 24.922c-15.208 8.317-26.942 4.857-35.245-10.378l-128.512-222.25c-8.289-15.249-5.521-26.333 8.289-33.252l43.534-24.908zM1021.924 918.473l-93.267 22.846-51.823-240.944-91.205-37.39-78.765-222.25 74.627-170.33-20.729-64.374-174.122-53.995-10.365-76.855-279.843-68.539 2.076-47.782h681.97c11.070 0 21.075 4.497 30.070 13.506s13.45 19.041 13.45 30.111l-2.076 915.996zM404.203 139.568c5.521-24.922 21.421-39.466 47.671-43.603 15.208-2.781 29.364 0.678 42.496 10.378 13.132 9.686 21.075 22.168 23.843 37.39v16.605l-31.094 186.949c-2.768 19.373-13.118 33.225-31.094 41.527l-134.739 60.25 84.992 149.559 43.534-54.009c4.151-5.535 9.673-9.686 16.592-12.454l161.681-45.706c24.867-5.521 42.15 3.473 51.809 27.011 4.165 11.070 3.805 22.5-1.024 34.276s-12.786 19.733-23.843 23.898l-2.076 2.062-140.952 41.514-107.797 126.699c-16.578 18.003-36.615 29.087-60.112 33.225-46.979 6.933-82.224-9.686-105.721-49.858l-118.147-203.527c-5.521-9.7-8.981-20.079-10.365-31.163v-16.619l4.151-257.536-91.219-191.114c-2.768-6.905-4.829-13.838-6.213-20.771-1.384-15.222 2.422-29.419 11.402-42.565 8.981-13.16 21.767-20.438 38.345-21.808 26.25-4.165 46.288 5.535 60.112 29.087l97.418 209.782c2.768 5.535 4.151 10.378 4.151 14.544v168.213l151.331-66.463 24.867-155.773z" />
<glyph unicode="&#xe61b;" glyph-name="stm_icon_comment_o" horiz-adv-x="1138" d="M1061.547 748.032c-50.745 65.422-119.808 117.191-206.848 155.079-87.381 38.002-182.5 57.003-285.81 57.003-77.028 0-150.642-11.264-220.956-33.678s-130.731-52.679-181.589-90.908c-50.745-38.116-91.25-83.513-121.287-136.192-30.037-52.565-45.056-107.748-45.056-165.547 0-66.56 19.115-129.024 57.458-187.051 38.343-58.368 90.681-107.065 157.127-146.66-4.665-17.749-10.126-34.475-16.498-50.631-6.372-15.929-12.060-29.013-17.18-39.367-5.006-10.126-11.947-21.504-20.594-33.906s-15.246-21.163-19.684-26.283-11.719-13.54-21.959-25.372-16.725-19.456-19.57-22.869c-0.455-0.341-2.162-2.276-5.12-6.144-2.958-3.755-4.437-5.575-4.437-5.575l-3.868-5.916c-2.048-3.3-3.072-5.461-2.844-6.485 0.228-0.796-0.228-2.958-1.252-6.485s-1.024-6.258 0.341-8.078v-0.683c1.707-7.964 5.348-14.45 11.15-19.342s12.174-6.94 19.342-5.916c27.534 3.413 51.655 8.306 72.363 14.564 110.933 29.81 208.213 83.399 292.068 161.223 31.744-3.527 62.464-5.12 92.046-5.12 103.31 0 198.428 18.887 285.81 56.889 87.040 37.888 156.103 89.657 206.848 155.079 50.859 65.536 76.231 136.875 76.231 214.13 0 77.369-25.372 148.821-76.231 214.244z" />
<glyph unicode="&#xe61c;" glyph-name="stm_icon_drawing_tool_circle" horiz-adv-x="808" d="M801.523-16.761l-33.576 66.749 30.033 15.953-243.874 466.782c32.458 36.392 52.547 84.507 52.547 137.149 0 96.364-68.77 177.381-154.947 199.572v47.306c0 23.916-19.281 43.264-42.968 43.264h-6.279c-23.754 0-42.968-19.348-42.968-43.264v-46.363c-92.268-20.669-160.485-102.683-160.485-200.529 0-50.136 17.368-96.121 47.091-131.84l-238.821-472.994 30.141-15.441-33.482-66.291c-3.328-6.589-3.934-14.255-1.671-21.248 2.264-7.060 7.249-12.84 13.757-16.222l11.466-5.915c6.548-3.328 14.147-3.88 21.127-1.63 6.966 2.25 12.773 7.303 16.088 13.945l33.401 66.277 30.518-15.576 181.652 360.057v-28.349h190.693v10.253l177.637-342.865 29.561 16.007 32.849-65.603c3.315-6.656 9.068-11.641 16.088-14.013 6.993-2.25 14.646-1.698 21.194 1.698l11.102 5.726c13.635 6.993 19.025 23.7 12.126 37.403zM404.184 464.6c-27.715 0-50.216 22.649-50.216 50.567 0 27.891 22.501 50.567 50.216 50.567s50.189-22.676 50.189-50.567c0-27.917-22.474-50.567-50.189-50.567zM501.005 572.915v76.787c0 24.293-19.55 44.032-43.736 44.032h-103.249c-24.131 0-43.736-19.699-43.736-44.032v-80.734c-24.616 25.034-44.18 60.995-44.18 100.877 0 75.533 60.982 136.92 135.976 136.92 75.035 0 137.472-61.386 137.472-136.92 0.027-37.821-13.918-72.111-38.548-96.93z" />
<glyph unicode="&#xe61d;" glyph-name="stm_icon_diploma_paper" horiz-adv-x="967" d="M441.173 421.319c-31.232 33.451-111.275 107.122-183.524 79.246l-219.762-227.783c1.138 0.228 2.276 0.398 3.413 0.512 50.404 6.997 123.278-1.252 193.422-75.947 56.604-60.359 80.896-115.712 68.437-155.876-6.997-22.3-24.69-37.376-48.754-41.472-4.21-0.683-8.875-1.081-13.71-1.081-40.448 0-100.409 26.396-155.022 103.708l33.792 26.396c44.43-62.805 98.247-90.852 128.171-85.39 12.629 2.162 14.734 9.273 15.531 11.605 5.234 16.896-6.884 56.149-58.482 110.99-83.228 88.747-167.424 65.707-196.722 53.476-7.964-50.631 19.399-121.458 74.524-180.224 71.168-75.89 162.361-103.481 207.474-64.171 0.341 0.057 0.455 0.057 0.455 0.057l244.736 253.611c3.698 10.354 7.566 33.394-10.524 71.452-19.627 41.301-50.062 85.333-83.456 120.889zM869.376 854.812c-73.5 78.222-168.277 105.188-211.684 60.245-1.195-1.252-176.583-182.784-176.583-182.784 53.646-22.642 111.104-64.284 157.924-114.233 54.272-57.742 88.235-118.329 100.75-176.924 0 0 182.784 189.269 183.865 190.464 43.463 45.056 19.228 144.953-54.272 223.232zM738.759 338.091c-22.528 5.575-39.196 7.509-41.756 7.737 5.177 18.489 6.884 37.49 5.575 56.604-4.437 64.853-43.008 130.617-93.468 184.377-44.43 47.388-98.19 85.447-146.034 105.188-5.461 2.276-10.752 3.755-16.043 4.779l-141.312-146.432c58.482-5.86 117.020-46.364 165.49-97.963 38.457-41.017 70.599-89.031 91.136-132.153 8.306-17.351 13.198-32.996 15.644-46.763 9.899-52.565-13.767-79.36-13.767-79.36l78.336 81.18c3.413 0.683 6.884 1.593 10.24 2.958 3.584-17.692 4.324-34.759 3.015-51.371-7.623-90.852-77.995-160.484-77.995-160.484l83.342-37.831c104.505 88.235 70.884 195.015 43.349 248.718-6.428 12.459-12.572 22.073-16.498 27.932-0.171 0.284-0.398 0.626-0.626 1.138 0.228-0.284 0.341-0.569 0.626-0.796 10.069-4.608 19.285-10.297 27.705-16.384 83.627-61.212 89.145-188.245 89.145-188.245l81.579 41.7c4.324 137.614-90.396 181.532-147.684 195.47z" />
<glyph unicode="&#xe61e;" glyph-name="stm_icon_drawing_tool_point" horiz-adv-x="965" d="M957.367 618.335c-25.893 30.837-60.65 56.305-90.624 83.295-36.513 32.841-73.026 65.682-109.948 98.085-62.859 55.208-128.307 115.888-202.006 156.789-6.349 3.511-12.112 2.56-16.252-0.585-2.633 0.088-5.427-0.351-8.309-1.712-26.917-12.551-24.942-54.989-24.137-79.199 0.965-29.564 4.857-63.371 17.203-91.736-31.832-28.043-63.005-57.754-94.764-85.577-73.011-63.985-132.081-143.258-213.87-196.71-7.007-4.579-8.28-11.498-6.144-17.232-4.667-7.022-5.427-17.584-5.939-25.966-1.872-8.982-2.867-17.072-3.087-20.027-2.882-38.181-6.758-83.324 2.458-121.944-34.436-33.207-62.069-71.314-94.735-105.999-26.536-28.204-53.775-56.232-76.902-87.333-13.195-17.759-59.568-101.947 0.483-96.227 46.987 4.462 89.19 78.438 114.41 111.718 52.005 68.579 130.048 120.364 171.652 195.789 3.496 6.334 2.282 12.2-1.17 16.223 1.463 60.24 46.943 136.528 116.531 115.317 44.164-13.458 65.317-70.466 45.436-109.217-20.129-39.248-70.188-54.725-111.294-52.853-2.355 0.132-4.403-0.249-6.232-0.892-5.413 5.573-14 7.256-20.304-0.571-54.491-67.628-103.439-138.474-162.216-202.547-23.333-25.454-105.194-95.466-85.753-137.26 25.702-55.208 84.699 7.519 106.335 32.212 19.558 22.352 36.776 46.724 54.082 70.802 29.52 41.062 72.47 71.461 102.824 112.699 2.706-1.77 6.1-2.516 10.138-1.185 48.538 15.872 102.137 18.71 149.153 38.312 1.36 0.571 2.721 1.273 3.994 2.107 1.989-0.029 4.023 0.41 6.027 1.872 27.663 20.187 46.826 50.907 66.662 78.248 33.733 46.431 66.194 93.784 97.851 141.648 27.824 42.043 55.281 84.699 78.863 129.273 1.463 2.779 3.204 5.925 4.974 9.275 25.307-5.383 52.795-4.827 77.605-4.608 28.35 0.234 71.227-1.712 95.685 15.667 2.809 2.004 4.637 4.432 5.793 7.036 7.914 3.613 13.648 13.312 5.53 23.011zM515.54 361.56c1.682 5.866 2.823 11.835 3.321 17.861 0.263-1.814 0.395-3.628 0.717-5.456-0.176-2.209 0.088-4.242 0.702-6.071-1.551-2.136-3.131-4.242-4.74-6.334z" />
<glyph unicode="&#xe61f;" glyph-name="stm_icon_dribble" d="M512 960c-282.802 0-512-229.198-512-512 0-282.758 229.198-512 512-512s512 229.242 512 512c-0.045 282.802-229.198 512-512 512zM825.656 694.561c49.998-63.443 81.252-141.98 85.215-227.773-57.834 12.243-112.417 18.209-163.306 18.209v0.045h-0.445c-40.96 0-79.427-3.74-115.667-10.195-8.86 21.593-17.72 42.34-26.802 62.197 80.807 35.484 158.319 85.882 221.006 157.518zM512 847.449c94.208 0 180.625-32.902 249.055-87.797-52.358-62.687-121.5-108.099-196.118-140.11-52.491 101.421-103.157 173.991-137.839 218.379 27.425 6.099 55.741 9.528 84.903 9.528zM335.56 805.821c27.737-32.768 83.256-104.804 142.514-217.266-120.609-35.885-242.020-44.299-315.481-44.299-2.093 0-4.185 0-6.189 0.045h-0.089c-12.377 0-23.018 0.178-31.878 0.445 28.627 114.688 107.208 209.697 211.122 261.075zM112.506 448c0 1.87 0.045 3.784 0.178 5.743 11.398-0.445 26.045-0.801 43.631-0.801h0.089c80.317 0.534 220.516 7.257 362.585 52.090 7.747-16.918 15.449-34.549 23.018-52.892-94.876-31.744-169.628-82.276-224.879-132.63-53.203-48.44-89.133-96.434-110.147-128.49-58.813 69.632-94.431 159.076-94.475 256.979zM512 48.506c-88.91 0-170.83 29.384-237.301 78.759 14.113 23.24 44.433 67.896 92.65 114.109 49.642 47.549 118.116 96.523 207.605 125.64 30.408-85.215 57.878-182.673 78.848-292.285-44.166-16.874-91.893-26.223-141.802-26.223zM738.037 119.474c-20.257 99.194-45.724 188.594-73.683 268.377 25.912 3.74 53.114 5.832 81.92 5.832h1.113c47.638 0 99.996-5.921 156.761-18.833-19.634-105.606-80.762-196.563-166.111-255.377z" />
<glyph unicode="&#xe620;" glyph-name="stm_icon_doc_edit" d="M577.331 664.81h-383.693c-9.933 0-17.979-7.841-17.979-17.569 0-9.713 8.060-17.569 17.979-17.569h383.693c9.933 0 17.979 7.856 17.979 17.569 0 9.728-8.046 17.569-17.979 17.569zM730.522 12.654h0.029c0-10.562-8.806-19.163-19.617-19.163h-356.952l-32.241-10.064c-6.48-2.004-13.136-3.028-19.792-3.028-14.19 0-27.385 4.754-38.166 13.093h-185.315c-10.811 0-19.632 8.587-19.632 19.163v805.171c0 10.591 8.806 19.178 19.632 19.178h73.538v-30.354c0-10.576 8.777-19.163 19.617-19.163s19.617 8.587 19.617 19.163v30.354h112.757v-30.354c0-10.576 8.777-19.163 19.617-19.163s19.617 8.587 19.617 19.163v30.354h98.055v-30.354c0-10.576 8.777-19.163 19.617-19.163s19.617 8.587 19.617 19.163v30.354h107.871v-30.354c0-10.576 8.792-19.163 19.602-19.163 10.84 0 19.617 8.587 19.617 19.163v30.354h83.354c10.796 0 19.602-8.587 19.602-19.178v-132.769l58.836 57.505v75.264c0 42.291-35.196 76.698-78.438 76.698h-83.354v46.314c0 10.576-8.777 19.163-19.617 19.163-10.811 0-19.602-8.572-19.602-19.163v-46.314h-107.886v46.314c0 10.576-8.777 19.163-19.617 19.163s-19.617-8.572-19.617-19.163v-46.314h-98.055v46.314c0 10.576-8.777 19.163-19.617 19.163s-19.602-8.572-19.602-19.163v-46.314h-112.757v46.314c0 10.576-8.777 19.163-19.602 19.163-10.854 0-19.617-8.572-19.617-19.163v-46.314h-73.567c-43.257 0-78.453-34.406-78.453-76.698v-805.142c0-42.277 35.196-76.683 78.453-76.683h632.466c43.257 0 78.438 34.406 78.438 76.683v279.128l-58.836-57.52v-221.637zM1008.406 623.66l-106.116 103.746c-15.609 15.258-43.286 13.049-61.689-4.974l-58.427-57.081 162.743-159.071 58.397 57.095c18.403 17.993 20.685 45.041 5.091 60.284zM577.331 523.088h-383.693c-9.933 0-17.979-7.87-17.979-17.584 0-9.728 8.060-17.569 17.979-17.569h383.693c9.933 0 17.979 7.841 17.979 17.569 0 9.713-8.046 17.584-17.979 17.584zM475.911 365.963h-282.273c-9.933 0-17.979-7.87-17.979-17.584s8.060-17.584 17.979-17.584h246.301l-72.923-71.285c-1.799-1.755-6.729-6.568-8.514-13.356-0.366-0.761-0.688-1.551-0.965-2.37l-64.527-197.954c-1.785-5.53-0.629-11.088 3.072-14.716 3.686-3.613 9.392-4.754 15.053-2.984l202.518 63.078c0.819 0.263 1.624 0.571 2.428 0.936 6.949 1.726 11.893 6.539 13.678 8.309l388.023 379.304-162.728 159.056-279.142-272.852zM395.337 86.367l-42.686 41.75 26.873 82.461 100.176-97.909-84.363-26.302zM748.807 555.213l-302.519-295.687c-5.764-5.647-15.097-5.647-20.86 0-5.749 5.632-5.749 14.76 0 20.378l302.519 295.717c5.764 5.647 15.067 5.647 20.846 0s5.778-14.76 0.015-20.407z" />
<glyph unicode="&#xe621;" glyph-name="stm_icon_users_group" d="M219.429 301.714c0 73.143 0 365.714 0 365.714s0.176 16.472 8.733 36.571c-76.025 0-155.019 0-155.019 0s-73.143 0-73.143-73.143v-256c0-73.143 73.143-73.143 73.143-73.143v-365.714h219.429v292.571c0 0-73.143 0-73.143 73.143zM219.429 740.571c19.017 0 36.601 5.252 52.18 13.751 2.15 1.317 4.579 2.472 6.89 3.76 30.369 19.5 50.644 53.409 50.644 92.204 0 60.606-49.108 109.714-109.714 109.714s-109.714-49.108-109.714-109.714 49.108-109.714 109.714-109.714zM950.857 704h-155.004c8.543-20.1 8.719-36.571 8.719-36.571s0-292.571 0-365.714-73.143-73.143-73.143-73.143v-292.571h219.429v365.714c0 0 73.143 0 73.143 73.143s0 256 0 256 0 73.143-73.143 73.143zM745.311 758.155c2.399-1.273 4.901-2.472 7.109-3.833 15.579-8.499 33.148-13.751 52.151-13.751 60.606 0 109.714 49.108 109.714 109.714s-49.108 109.714-109.714 109.714-109.714-49.108-109.714-109.714c0-38.722 20.173-72.587 50.454-92.131zM512 740.571c60.577 0 109.714 49.137 109.714 109.714 0 60.592-49.137 109.714-109.714 109.714-60.592 0-109.714-49.123-109.714-109.714 0-60.577 49.123-109.714 109.714-109.714zM731.429 630.857c0 0 0 73.143-73.143 73.143-18.286 0-292.571 0-292.571 0s-73.143 0-73.143-73.143v-256c0-73.143 73.143-73.143 73.143-73.143v-365.714h292.571v365.714c0 0 73.143 0 73.143 73.143s0 256 0 256z" />
<glyph unicode="&#xe622;" glyph-name="stm_icon_ms_logo" horiz-adv-x="924" d="M37.344 920.192v-804.143c0-35.285 28.967-64.252 64.252-64.252h259.418c41.339 0 78.137-5.297 100.945-36.411 22.808 31.132 59.588 36.411 100.945 36.411h259.401c35.302 0 64.252 28.967 64.252 64.252v804.143h-849.212zM0 960h923.918v-854.052c0-50.032-40.952-90.984-91.001-90.984h-267.056c-57.142 0-103.901-21.804-103.901-78.964 0 57.16-46.759 78.964-103.919 78.964h-267.056c-50.032 0-90.984 40.952-90.984 90.984v854.052zM526.95 431.713h-111.099c-3.836 0-5.772 1.901-5.772 5.755v24.532c0 3.854 1.936 5.772 5.772 5.772h32.223v239.462h-0.475l-91.353-226.967c-3.836-9.609-10.893-14.413-21.153-14.413s-17.317 4.804-21.153 14.413l-91.371 226.967h-0.95v-239.462h32.205c4.171 0 6.265-1.918 6.265-5.772v-24.532c0-3.854-2.094-5.755-6.265-5.755h-110.589c-4.171 0-6.247 1.901-6.247 5.755v24.532c0 3.854 2.077 5.772 6.247 5.772h36.552v273.128h-36.552c-4.171 0-6.247 1.918-6.247 5.772v24.515c0 3.854 2.077 5.772 6.247 5.772h74.054c10.893 0 18.426-5.438 22.596-16.349l71.643-173.098 22.596-60.591h1.936c8.975 25.007 16.349 44.876 22.121 59.623l72.118 174.066c4.171 10.911 11.861 16.349 23.072 16.349h73.597c3.854 0 5.755-1.918 5.755-5.772v-24.515c0-3.854-1.901-5.772-5.755-5.772h-37.027v-273.128h37.027c3.854 0 5.755-1.918 5.755-5.772v-24.532c0-3.854-1.918-5.755-5.772-5.755zM549.159 202.211h-26.926c-4.171 0-6.23 1.918-6.23 5.772v112.524c0 4.153 2.059 6.247 6.23 6.247h30.287c3.872 0 5.772-2.094 5.772-6.247v-10.084c0-6.089 3.696-14.184 11.069-24.286 7.356-10.102 14.73-18.355 22.121-24.761 7.374-6.423 17.229-11.949 29.583-16.595 12.337-4.646 25.729-6.969 40.142-6.969 24.673 0 43.996 5.121 57.952 15.381 13.938 10.26 20.907 24.532 20.907 42.799 0 10.594-3.924 19.64-11.773 27.172-7.849 7.55-18.038 13.551-30.533 18.021-12.512 4.488-26.362 8.658-41.585 12.512-15.223 3.836-30.445 8.254-45.686 13.216-15.223 4.98-29.073 10.893-41.585 17.792-12.495 6.916-22.684 16.507-30.533 28.861s-11.773 26.838-11.773 43.521c0 26.943 10.172 49.205 30.533 66.839 20.326 17.634 47.674 26.45 81.956 26.45 43.275 0 75.040-12.671 95.208-37.977l-0.95 29.812c0 3.836 2.077 5.755 6.23 5.755h26.926c3.836 0 5.772-1.918 5.772-5.755v-104.834c0-3.854-1.936-5.772-5.772-5.772h-30.305c-3.836 0-5.755 1.918-5.755 5.772v13.463c0 13.146-7.374 26.45-22.121 39.913s-36.394 20.185-64.921 20.185c-21.153 0-38.224-5.051-51.211-15.135-12.952-10.102-19.446-23.001-19.446-38.717 0-11.21 3.995-20.837 12.020-28.844 8.007-8.007 18.426-14.431 31.255-19.253 12.812-4.787 26.926-9.204 42.307-13.234 15.399-3.995 30.78-8.412 46.161-13.216 15.399-4.787 29.495-10.577 42.307-17.299 12.829-6.723 23.23-15.944 31.255-27.647 8.007-11.703 12.020-25.553 12.020-41.585 0-28.21-10.084-51.458-30.305-69.725-20.185-18.267-50.314-27.401-90.386-27.401-29.495 0-53.886 5.931-73.086 17.792-19.235 11.844-33.191 24.673-41.831 38.47l0.475-47.129c0-3.889-1.918-5.807-5.772-5.807z" />
<glyph unicode="&#xe623;" glyph-name="stm_icon_alarm" d="M860.16 186.829c-58.573 43.981-92.16 111.206-92.16 184.371v153.6c0 128.666-86.733 237.466-204.8 270.95v36.25c0 42.342-34.458 76.8-76.8 76.8s-76.8-34.458-76.8-76.8v-36.25c-118.067-33.536-204.8-142.285-204.8-270.95v-153.6c0-73.165-33.587-140.339-92.16-184.371-8.806-6.605-12.39-18.125-8.909-28.57s13.261-17.51 24.269-17.51h232.96c-1.69-8.397-2.611-16.947-2.611-25.6 0-70.554 57.446-128 128-128s128 57.446 128 128c0 8.602-0.87 17.203-2.56 25.6h232.96c11.008 0 20.787 7.066 24.269 17.51s-0.102 21.965-8.909 28.57zM460.8 832c0 14.131 11.469 25.6 25.6 25.6s25.6-11.469 25.6-25.6v-26.778c-8.448 0.768-16.947 1.178-25.6 1.178s-17.152-0.41-25.6-1.178v26.778zM563.2 115.2c0-42.342-34.458-76.8-76.8-76.8s-76.8 34.458-76.8 76.8c0 8.755 1.536 17.408 4.403 25.6h144.794c2.867-8.192 4.403-16.845 4.403-25.6zM191.59 192c13.056 15.821 24.422 33.075 33.741 51.251 20.378 39.834 30.669 82.893 30.669 127.949v153.6c0 127.027 103.373 230.4 230.4 230.4s230.4-103.373 230.4-230.4v-153.6c0-45.056 10.342-88.115 30.669-127.949 9.318-18.227 20.685-35.43 33.741-51.251h-589.67z" />
<glyph unicode="&#xe624;" glyph-name="stm_icon_briefcase" d="M947.2 704h-230.4v76.8c0 42.342-34.458 76.8-76.8 76.8h-256c-42.342 0-76.8-34.458-76.8-76.8v-76.8h-230.4c-42.342 0-76.8-34.458-76.8-76.8v-563.2c0-42.342 34.458-76.8 76.8-76.8h870.4c42.342 0 76.8 34.458 76.8 76.8v563.2c0 42.342-34.458 76.8-76.8 76.8zM358.4 780.8c0 14.131 11.469 25.6 25.6 25.6h256c14.131 0 25.6-11.469 25.6-25.6v-76.8h-307.2v76.8zM76.8 652.8h870.4c14.131 0 25.6-11.469 25.6-25.6v-384h-102.4v25.6c0 14.131-11.469 25.6-25.6 25.6h-102.4c-14.131 0-25.6-11.469-25.6-25.6v-25.6h-409.6v25.6c0 14.131-11.469 25.6-25.6 25.6h-102.4c-14.131 0-25.6-11.469-25.6-25.6v-25.6h-102.4v384c0 14.131 11.469 25.6 25.6 25.6zM819.2 243.2v-51.2h-51.2v51.2h51.2zM256 243.2v-51.2h-51.2v51.2h51.2zM947.2 38.4h-870.4c-14.131 0-25.6 11.469-25.6 25.6v128h102.4v-25.6c0-14.131 11.469-25.6 25.6-25.6h102.4c14.131 0 25.6 11.469 25.6 25.6v25.6h409.6v-25.6c0-14.131 11.469-25.6 25.6-25.6h102.4c14.131 0 25.6 11.469 25.6 25.6v25.6h102.4v-128c0-14.131-11.469-25.6-25.6-25.6z" />
<glyph unicode="&#xe625;" glyph-name="stm_icon_diamond" d="M967.68 591.36l-153.6 204.8c-3.942 5.274-9.779 8.806-16.282 9.882l-307.2 51.2c-2.765 0.461-5.632 0.461-8.397 0l-307.2-51.2c-6.502-1.075-12.339-4.608-16.282-9.882l-153.6-204.8c-7.322-9.779-6.707-23.398 1.434-32.461l460.8-512c4.864-5.376 11.776-8.499 19.046-8.499s14.182 3.072 19.046 8.499l460.8 512c8.192 9.114 8.806 22.682 1.434 32.461zM654.643 601.6l-168.243-462.694-168.243 462.694h336.486zM343.398 652.8l143.002 143.002 143.002-143.002h-286.003zM560.998 793.6l189.338-31.539-63.13-94.669-126.259 126.208zM285.594 667.392l-63.13 94.669 189.338 31.539-126.208-126.208zM239.104 644.813l-152.832-30.566 91.699 122.266 61.133-91.699zM265.062 597.76l152.269-418.765-342.63 380.723 190.362 38.093zM707.738 597.76l190.362-38.093-342.63-380.723 152.269 418.765zM733.696 644.813l61.133 91.699 91.699-122.266-152.832 30.566z" />
<glyph unicode="&#xe626;" glyph-name="stm_icon_earth" d="M874.035 810.035c-96.717 96.717-225.28 149.965-362.035 149.965s-265.318-53.248-362.035-149.965c-96.717-96.717-149.965-225.28-149.965-362.035s53.248-265.318 149.965-362.035c96.717-96.717 225.28-149.965 362.035-149.965s265.318 53.248 362.035 149.965c96.717 96.717 149.965 225.28 149.965 362.035s-53.248 265.318-149.965 362.035zM941.926 613.837c-9.984 17.971-35.072 26.522-67.84 37.683-35.174 11.981-47.616 48.128-62.003 90.010-12.493 36.352-25.395 73.882-56.064 97.229 83.917-52.582 149.709-131.43 185.907-224.922zM798.259 438.221c3.891-34.662 7.885-70.554-35.174-118.886-11.622-13.056-18.432-31.232-25.651-50.483-16.691-44.595-32.461-86.733-99.635-87.347-1.894 2.253-7.219 10.752-11.981 37.53-4.352 24.678-6.861 56.627-9.574 90.368-4.096 51.814-8.755 110.592-21.555 159.334-16.384 62.31-43.878 99.123-84.019 112.538-17.51 5.837-35.43 8.704-54.682 8.704-14.234 0-27.136-1.536-38.502-2.867-8.858-1.024-17.254-2.048-24.32-2.048 0 0 0 0 0 0-11.981 0-25.549 0-42.291 38.298-24.013 55.040-6.298 143.258 64.205 189.798 38.656 25.498 65.331 36.403 89.19 36.403 19.046 0 39.578-6.605 68.71-22.17 34.406-18.33 61.389-20.685 81.050-20.685 7.782 0 14.848 0.41 21.658 0.819 5.734 0.358 11.11 0.666 16.128 0.666 11.264 0 20.378-1.485 31.078-8.755 19.712-13.466 29.952-43.213 40.755-74.65 16.384-47.718 34.97-101.786 93.952-121.856 7.936-2.714 21.555-7.322 31.232-11.366-8.346-8.602-22.272-21.043-35.942-33.229-8.806-7.885-18.79-16.794-29.85-26.88-31.949-29.133-28.16-63.232-24.781-93.286zM51.251 451.942c5.53-0.973 11.469-2.15 17.613-3.43 28.774-6.144 42.24-11.674 48.128-14.797-2.714-5.274-8.192-13.056-11.827-18.176-12.646-17.971-28.416-40.346-22.426-64.973 4.045-16.64 0.614-37.018-5.274-55.859-16.998 48.026-26.266 99.635-26.266 153.395 0 1.331 0.051 2.611 0.051 3.942zM512-12.8c-175.36 0-328.192 98.509-406.016 243.046 13.414 25.549 38.298 82.074 26.675 131.533 0.819 4.966 9.267 16.947 14.336 24.166 13.875 19.712 31.13 44.186 18.33 70.144-8.96 18.227-32.973 30.515-80.179 41.165-10.957 2.458-21.606 4.454-30.669 6.042 27.443 228.096 222.106 405.453 457.472 405.453 80.794 0 156.774-20.941 222.822-57.6-16.333 7.117-31.13 8.243-43.008 8.243-6.502 0-12.954-0.358-19.2-0.768-6.093-0.358-12.39-0.717-18.637-0.717-14.541 0-32.666 1.741-56.934 14.694-37.069 19.712-64.819 28.16-92.774 28.16-34.611 0-69.734-13.414-117.402-44.851-41.216-27.187-72.243-68.762-87.398-117.146-14.797-47.155-13.21-95.437 4.454-135.885 20.838-47.718 48.333-69.018 89.19-69.018 0 0 0 0 0 0 10.086 0 19.917 1.178 30.31 2.406 10.496 1.229 21.299 2.509 32.512 2.509 13.875 0 26.112-1.946 38.451-6.042 22.477-7.526 39.066-32.717 50.739-77.005s16.077-100.659 20.019-150.323c3.277-41.472 6.349-80.589 13.158-110.131 4.147-17.92 9.472-31.539 16.384-41.626 10.291-15.053 25.037-23.347 41.523-23.347 45.261 0 81.408 14.592 107.469 43.366 21.658 23.91 32.717 53.453 41.626 77.21 5.222 13.978 10.65 28.467 15.923 34.406 58.214 65.382 52.224 119.245 47.821 158.618-3.226 28.877-3.277 39.117 8.397 49.766 10.854 9.882 20.736 18.739 29.44 26.522 18.586 16.589 32 28.57 41.421 38.81 6.451 7.066 21.606 23.603 17.408 44.288-0.051 0.205-0.102 0.358-0.102 0.563 17.562-48.691 27.136-101.171 27.136-155.853 0-254.106-206.694-460.8-460.8-460.8z" />
<glyph unicode="&#xe627;" glyph-name="stm_icon_graduation-hat" d="M955.29 600.269l-460.8 153.6c-5.274 1.741-10.957 1.741-16.179 0l-460.8-153.6c-10.445-3.482-17.51-13.261-17.51-24.269s7.066-20.787 17.51-24.269l136.090-45.363v-135.168c0-6.81 2.714-13.312 7.475-18.125 4.506-4.506 112.333-109.875 325.325-109.875 77.466 0 149.709 13.926 214.784 41.421 13.005 5.478 19.098 20.531 13.619 33.536s-20.531 19.098-33.536 13.619c-58.726-24.832-124.262-37.376-194.816-37.376-99.584 0-172.851 25.805-216.781 47.411-32.512 16.026-54.272 32.205-64.819 40.909v106.547l273.51-91.187c2.611-0.87 5.376-1.331 8.090-1.331s5.478 0.461 8.090 1.331l273.51 91.187v-45.67c-29.798-10.547-51.2-39.014-51.2-72.397 0-31.283 18.79-58.214 45.67-70.195l-44.902-179.61c-1.894-7.629-0.205-15.77 4.659-21.965s12.288-9.83 20.173-9.83h102.4c7.885 0 15.309 3.635 20.173 9.83s6.554 14.336 4.659 21.965l-44.902 179.61c26.88 11.981 45.67 38.912 45.67 70.195 0 33.382-21.402 61.85-51.2 72.397v62.771l136.090 45.363c10.445 3.482 17.51 13.261 17.51 24.269s-7.066 20.787-17.51 24.269zM793.6 396.8c14.131 0 25.6-11.469 25.6-25.6s-11.469-25.6-25.6-25.6-25.6 11.469-25.6 25.6 11.469 25.6 25.6 25.6zM775.168 140.8l18.432 73.626 18.432-73.626h-36.813zM791.552 551.117l-300.902 50.176c-13.978 2.304-27.136-7.117-29.44-21.043s7.117-27.136 21.043-29.44l205.517-34.253-201.318-67.123-379.853 126.618 379.853 126.618 379.853-126.618-74.701-24.883z" />
<glyph unicode="&#xe628;" glyph-name="stm_icon_license" d="M947.2 38.4h-870.4c-42.342 0-76.8 34.458-76.8 76.8v665.6c0 42.342 34.458 76.8 76.8 76.8h870.4c42.342 0 76.8-34.458 76.8-76.8v-665.6c0-42.342-34.458-76.8-76.8-76.8zM76.8 806.4c-14.131 0-25.6-11.469-25.6-25.6v-665.6c0-14.131 11.469-25.6 25.6-25.6h870.4c14.131 0 25.6 11.469 25.6 25.6v665.6c0 14.131-11.469 25.6-25.6 25.6h-870.4zM486.4 652.8h-307.2c-14.131 0-25.6 11.469-25.6 25.6s11.469 25.6 25.6 25.6h307.2c14.131 0 25.6-11.469 25.6-25.6s-11.469-25.6-25.6-25.6zM486.4 499.2h-307.2c-14.131 0-25.6 11.469-25.6 25.6s11.469 25.6 25.6 25.6h307.2c14.131 0 25.6-11.469 25.6-25.6s-11.469-25.6-25.6-25.6zM486.4 396.8h-307.2c-14.131 0-25.6 11.469-25.6 25.6s11.469 25.6 25.6 25.6h307.2c14.131 0 25.6-11.469 25.6-25.6s-11.469-25.6-25.6-25.6zM486.4 294.4h-307.2c-14.131 0-25.6 11.469-25.6 25.6s11.469 25.6 25.6 25.6h307.2c14.131 0 25.6-11.469 25.6-25.6s-11.469-25.6-25.6-25.6zM435.2 192h-256c-14.131 0-25.6 11.469-25.6 25.6s11.469 25.6 25.6 25.6h256c14.131 0 25.6-11.469 25.6-25.6s-11.469-25.6-25.6-25.6zM918.682 624.947l-41.626 30.259-15.923 48.947h-51.456l-41.626 30.259-41.626-30.259h-51.456l-15.923-48.947-41.626-30.259 15.923-48.947-15.923-48.947 41.626-30.259 6.758-20.787c-0.102-0.819-0.102-1.587-0.102-2.406v-256c0-10.342 6.246-19.712 15.821-23.654s20.582-1.792 27.904 5.53l58.675 58.675 58.675-58.675c4.915-4.915 11.418-7.526 18.125-7.475 3.277 0 6.605 0.614 9.779 1.946 9.574 3.942 15.821 13.312 15.821 23.654v256c0 0.819-0.051 1.638-0.102 2.406l6.758 20.787 41.626 30.259-15.923 48.947 15.923 48.947zM677.53 605.389l24.986 18.176 9.574 29.389h30.925l24.986 18.176 24.986-18.176h30.925l9.574-29.389 24.986-18.176-9.574-29.389 9.574-29.389-24.986-18.176-9.574-29.389h-30.925l-24.986-18.176-24.986 18.176h-30.925l-9.574 29.389-24.986 18.176 9.574 29.389-9.574 29.389zM786.125 312.525c-9.984 9.984-26.214 9.984-36.198 0l-33.075-33.075v168.448h9.574l41.626-30.259 41.626 30.259h9.574v-168.448l-33.075 33.075z" />
<glyph unicode="&#xe629;" glyph-name="stm_icon_users" d="M947.2 38.4h-563.2c-42.342 0-76.8 34.458-76.8 76.8 0 2.458 0.563 60.928 47.309 118.528 26.88 33.075 63.539 59.29 108.954 77.926 54.835 22.528 122.88 33.894 202.138 33.894s147.251-11.418 202.138-33.894c45.414-18.637 82.074-44.851 108.954-77.926 46.797-57.6 47.309-116.070 47.309-118.528 0-42.342-34.458-76.8-76.8-76.8zM358.4 115.046c0.051-14.080 11.52-25.446 25.6-25.446h563.2c14.080 0 25.549 11.418 25.6 25.446-0.051 1.792-1.638 45.824-37.837 88.781-49.869 59.238-143.002 90.522-269.363 90.522s-219.494-31.334-269.363-90.522c-36.198-43.008-37.786-86.989-37.837-88.781zM665.6 396.8c-112.947 0-204.8 91.853-204.8 204.8s91.853 204.8 204.8 204.8 204.8-91.853 204.8-204.8c0-112.947-91.853-204.8-204.8-204.8zM665.6 755.2c-84.685 0-153.6-68.915-153.6-153.6s68.915-153.6 153.6-153.6 153.6 68.915 153.6 153.6-68.915 153.6-153.6 153.6zM230.4 38.4h-153.6c-42.342 0-76.8 34.458-76.8 76.8 0 1.894 0.41 47.462 33.946 92.16 19.354 25.856 45.773 46.285 78.49 60.826 39.117 17.408 87.45 26.214 143.616 26.214 9.165 0 18.227-0.256 26.982-0.717 14.131-0.768 24.934-12.8 24.218-26.931s-12.8-24.986-26.931-24.218c-7.834 0.41-15.974 0.614-24.218 0.614-199.373 0-204.646-121.805-204.8-128.154 0.051-14.029 11.52-25.446 25.6-25.446h153.6c14.131 0 25.6-11.469 25.6-25.6s-11.469-25.6-25.6-25.6zM256 345.6c-84.685 0-153.6 68.915-153.6 153.6s68.915 153.6 153.6 153.6 153.6-68.915 153.6-153.6-68.915-153.6-153.6-153.6zM256 601.6c-56.474 0-102.4-45.926-102.4-102.4s45.926-102.4 102.4-102.4 102.4 45.926 102.4 102.4c0 56.474-45.926 102.4-102.4 102.4z" />
<glyph unicode="&#xe62a;" glyph-name="fa-stm_icon_book" d="M742.4 38.4h-512c-14.131 0-25.6 11.469-25.6 25.6s11.469 25.6 25.6 25.6h512c14.131 0 25.6-11.469 25.6-25.6s-11.469-25.6-25.6-25.6zM844.8 806.4c-14.131 0-25.6-11.469-25.6-25.6v-768c0-14.131-11.469-25.6-25.6-25.6h-563.2c-42.342 0-76.8 34.458-76.8 76.8s34.458 76.8 76.8 76.8h460.8c42.342 0 76.8 34.458 76.8 76.8v614.4c0 42.342-34.458 76.8-76.8 76.8h-512c-42.342 0-76.8-34.458-76.8-76.8v-768c0-70.554 57.446-128 128-128h563.2c42.342 0 76.8 34.458 76.8 76.8v768c0 14.131-11.469 25.6-25.6 25.6zM179.2 857.6h512c14.131 0 25.6-11.469 25.6-25.6v-614.4c0-14.131-11.469-25.6-25.6-25.6h-460.8c-28.774 0-55.398-9.574-76.8-25.651v665.651c0 14.131 11.469 25.6 25.6 25.6z" />
<glyph unicode="&#xe62b;" glyph-name="mail-o" horiz-adv-x="1443" d="M1403.625 959.953h-1364.34c-21.69 0-39.238-17.175-39.238-38.4v-947.107c0-21.178 17.548-38.353 39.238-38.353h1364.34c21.644 0 39.238 17.175 39.238 38.353v947.107c0 21.225-17.594 38.4-39.238 38.4zM1370.531 7.54h-1298.199v770.7l624.966-458.1c8.332-4.468 17.687-6.703 27.136-6.703s18.804 2.234 27.136 6.703l619.008 461.033v-773.632zM1370.531 816.919l-649.076-431.337-649.123 431.337v71.54h1298.199v-71.54z" />
<glyph unicode="&#xe62c;" glyph-name="phone-o" horiz-adv-x="776" d="M772.655 105.829c-3.165 11.978-9.030 26.19-17.656 42.636-6.485 12.35-14.46 25.569-23.924 39.688-9.464 14.088-19.89 28.61-31.248 43.536-3.693 4.53-10.395 12.722-20.139 24.638-9.712 11.916-20.759 24.421-33.078 37.516-12.35 13.095-25.259 25.197-38.664 36.274-13.405 11.109-25.445 18.091-36.181 20.914-17.749 4.655-35.499 0.559-53.155-12.381-17.625-12.94-35.716-28.082-54.272-45.49-7.416-6.734-14.77-13.374-21.907-19.859-7.199-6.516-14.088-12.133-20.635-16.849-6.951-4.934-12.040-7.975-15.267-9.030-3.227-1.086-5.213-1.707-5.927-1.862-24.855 18.494-49.276 42.139-73.232 71.059-23.986 28.889-29.541 32.396-49.183 65.784s-19.952 39.874-33.42 74.69c-13.498 34.847-22 67.429-25.569 97.683 0.155 0.621 1.614 1.986 4.344 4.189s8.006 4.996 15.856 8.409c7.447 3.227 15.825 6.237 25.166 9.092 9.309 2.886 18.618 5.679 27.896 8.409 24.669 7.354 47.135 15.329 67.367 23.893 20.232 8.533 32.706 21.38 37.392 38.571 2.855 10.519 2.731 24.235-0.341 41.208-3.103 16.943-7.323 34.009-12.629 51.2-5.337 17.222-10.83 32.954-16.446 47.166-5.648 14.243-9.588 23.893-11.792 29.013-7.385 17.439-14.957 33.606-22.714 48.531s-15.298 28.238-22.621 39.843c-10.209 15.919-19.828 28.207-28.951 36.895s-17.998 14.181-26.562 16.415c-8.906 2.358-18.991 3.010-30.286 1.924-11.295-1.055-22.869-3.165-34.754-6.361-11.854-3.134-23.676-7.044-35.468-11.698-11.792-4.624-22.466-9.557-32.116-14.77-6.827-3.382-15.484-8.285-25.941-14.708-10.457-6.454-21.008-14.057-31.62-22.869-10.612-8.844-20.418-18.928-29.417-30.255-9.030-11.357-15.329-23.645-18.928-36.864-5.585-20.48-9.712-41.643-12.412-63.519s-4.096-44.435-4.189-67.615c-0.093-23.211 1.241-47.042 3.91-71.463 2.7-24.39 6.796-49.431 12.288-75.093 5.151-23.273 11.419-46.949 18.804-70.966 7.385-24.048 15.825-47.973 25.259-71.742 9.464-23.8 19.984-47.507 31.589-71.215s7.727-19.332 20.883-42.139c13.56-22.621 11.605-17.129 26.717-38.819 15.081-21.721 30.751-42.636 46.949-62.712 16.198-20.046 32.985-39.253 50.331-57.53s35.157-35.468 53.434-51.541c19.859-17.501 39.812-33.451 59.857-47.942 20.015-14.46 40.277-27.462 60.819-38.974 20.48-11.543 41.084-21.535 61.75-30.068 20.666-8.471 41.425-15.484 62.278-20.976 13.498-3.537 27.462-4.406 41.922-2.576 14.491 1.862 28.362 5.12 41.643 9.837 13.281 4.748 25.383 9.93 36.305 15.639 10.923 5.679 19.549 10.581 25.941 14.708 9.092 5.679 18.618 12.35 28.61 20.046s19.332 15.794 28.051 24.297c8.72 8.471 16.384 17.315 22.962 26.376 6.609 9.092 11.078 17.967 13.467 26.686s2.017 19.177-1.148 31.123zM705.691 58.135c-12.133-13.095-29.262-26.562-51.417-40.432-20.635-12.94-40.526-22.311-59.671-28.082s-34.847-7.044-47.104-3.817c-79.096 20.821-154.438 63.705-226.056 128.652-71.618 65.008-116.177 112.485-166.167 197.725s-69.477 146.991-90.919 240.547c-21.442 93.556-21.597 179.138-0.372 256.807 3.196 11.729 12.040 24.328 26.531 37.764 14.522 13.436 32.675 25.848 54.489 37.174 23.273 11.947 43.66 19.828 61.13 23.614s29.417 4.841 35.84 3.165c4.437-1.831 13.033-11.823 25.817-30.037s27.803-47.29 45.149-87.35c7.106-17.346 13.188-33.451 18.339-48.376 5.12-14.895 9.216-28.144 12.288-39.75 3.072-11.636 5.182-21.349 6.33-29.231 1.117-7.913 1.303-13.343 0.465-16.322-0.093-0.31-1.396-1.583-4.003-3.786-2.576-2.234-7.975-5.182-16.198-8.813-7.354-2.917-15.515-5.772-24.514-8.533-8.999-2.824-17.936-5.461-26.81-7.944-12.164-3.568-24.266-7.323-36.336-11.233-12.071-3.941-22.869-8.223-32.334-12.816-18.339-9.371-29.758-19.332-34.288-29.913s-6.392-19.859-5.616-27.803c4.251-33.73 13.622-69.477 28.113-107.334 14.46-37.857 16.136-47.228 37.454-83.503 21.318-36.243 28.858-42.449 55.079-73.883s53.217-57.22 80.865-77.39c2.451-1.955 4.965-3.475 7.602-4.655s5.492-2.172 8.533-2.979c18.091-4.748 36.15-0.59 54.21 12.567 17.998 13.157 36.492 28.548 55.451 46.142 7.044 6.516 13.995 12.909 20.976 19.146 6.982 6.206 13.529 11.605 19.704 16.136 7.013 5.244 12.133 8.409 15.391 9.495 3.227 1.086 5.058 1.738 5.461 1.955 2.979-1.086 7.696-4.034 14.119-8.782 6.392-4.748 13.964-11.326 22.652-19.766 8.72-8.409 18.432-18.587 29.137-30.41s21.752-25.228 33.14-40.153c27.027-34.537 45.273-61.843 54.768-81.92s14.088-32.334 13.84-36.833c-1.862-6.268-8.937-15.981-21.070-29.044z" />
<glyph unicode="&#xe62d;" glyph-name="pin-o" horiz-adv-x="614" d="M415.832 761.081c-14.014 13.839-30.281 24.752-48.801 32.739s-38.473 11.995-59.831 11.995c-21.358 0-41.311-4.008-59.831-11.995s-34.787-18.9-48.801-32.739c-14.014-13.809-25.044-30.076-33.031-48.742-8.016-18.695-12.025-38.678-12.025-60.036 0-20.977 4.008-40.843 12.025-59.48 7.987-18.695 19.017-34.992 33.031-49.006s30.281-24.986 48.801-33.002c18.52-7.987 38.473-11.995 59.831-11.995s41.311 4.008 59.831 11.995 34.787 18.988 48.801 33.002 25.015 30.31 33.031 49.006c8.016 18.666 12.025 38.502 12.025 59.48 0 21.328-4.008 41.34-12.025 60.036-8.016 18.666-19.046 34.933-33.031 48.742zM401.818 612.571c-5.383-12.493-12.698-23.318-22.060-32.475-9.304-9.157-20.246-16.501-32.768-22.001s-25.776-8.251-39.79-8.251-27.297 2.75-39.79 8.251c-12.522 5.5-23.464 12.815-32.797 22.001-9.362 9.157-16.706 20.012-22.031 32.475-5.354 12.522-8.016 25.776-8.016 39.731 0 14.336 2.662 27.677 8.016 40.024 5.325 12.317 12.668 23.142 22.031 32.475 9.333 9.362 20.275 16.677 32.797 22.031 12.522 5.325 25.776 7.987 39.79 7.987s27.297-2.692 39.79-7.987c12.522-5.354 23.464-12.668 32.768-22.001 9.362-9.333 16.677-20.158 22.060-32.475 5.325-12.347 7.987-25.688 7.987-40.024 0.029-13.985-2.662-27.238-7.987-39.76zM590.555 771.818c-16.033 37.303-37.976 69.925-65.829 97.748s-60.475 49.825-97.865 66.004c-37.391 16.179-77.297 24.254-119.662 24.254-42.394 0-82.271-8.075-119.632-24.254-37.391-16.179-70.012-38.181-97.894-66.004s-49.825-60.416-65.829-97.748c-16.033-37.332-24.020-77.18-24.020-119.515 0-19.661 0.907-39.731 2.75-60.24s4.681-41.516 8.514-62.991c3.833-21.504 8.572-43.33 14.277-65.507 5.676-22.177 12.171-44.734 19.515-67.73 6.027-17.993 12.61-36.25 19.778-54.74 7.168-18.52 14.833-37.244 23.025-56.261 8.163-18.988 16.94-38.093 26.273-57.256s19.193-38.415 29.55-57.754c17.671-33.002 34.962-62.991 51.814-89.995s31.949-50.352 45.29-70.012c13.341-19.661 24.283-35.079 32.797-46.256s13.107-17.262 13.78-18.256c2.341-3.013 5.266-5.325 8.777-6.992s7.256-2.487 11.264-2.487 7.753 0.819 11.264 2.487c3.511 1.697 6.437 4.008 8.777 6.992 0.644 0.995 5.237 7.080 13.751 18.256s19.456 26.595 32.797 46.256c13.371 19.661 28.467 43.008 45.319 70.012s34.114 56.993 51.814 89.995c10.357 19.31 20.158 38.561 29.52 57.754s18.081 38.268 26.273 57.256c8.163 18.988 15.857 37.742 23.025 56.261 7.168 18.491 13.78 36.747 19.778 54.74 7.344 22.996 13.868 45.583 19.515 67.73 5.676 22.177 10.445 44.003 14.277 65.507 3.833 21.475 6.7 42.481 8.514 62.991 1.843 20.48 2.75 40.58 2.75 60.24-0.029 42.364-8.046 82.183-24.049 119.515zM550.736 527.082c-8.514-41.838-19.368-82.505-32.534-122.002-13.166-39.526-27.97-77.093-44.325-112.757-16.355-35.694-32.329-68.198-48.069-97.514-11.352-21.328-22.733-41.691-34.289-61.001-11.498-19.339-22.469-37.098-32.797-53.248s-19.953-30.661-28.76-43.476c-8.836-12.844-16.443-23.786-22.762-32.768-6.349 8.689-13.956 19.427-22.762 32.271-8.865 12.815-18.461 27.355-28.789 43.505s-21.182 33.821-32.534 53.014c-11.352 19.134-22.704 39.585-34.055 61.235-16.033 28.994-32.124 61.44-48.304 97.251s-30.954 73.523-44.295 112.991c-13.371 39.526-24.283 80.252-32.797 122.266s-12.785 83.822-12.785 125.484c0 35.343 6.758 68.608 20.275 99.767 13.517 31.13 31.861 58.309 55.062 81.481 23.172 23.172 50.322 41.428 81.335 54.74 31.071 13.341 64.278 19.983 99.65 19.983s68.579-6.671 99.591-20.012c31.071-13.312 58.163-31.568 81.364-54.74s41.545-50.352 55.091-81.481c13.488-31.159 20.246-64.424 20.246-99.767 0.029-41.633-4.242-83.383-12.756-125.221z" />
<glyph unicode="&#xe62e;" glyph-name="skype-o" d="M287.648 374.208c0 0.48 0.256 0.832 0.288 1.312-0.192 1.824-0.32 3.072-0.416 4.16 0.064-1.376 0.128-2.784 0.128-5.472zM736.32 356.48c0 22.656-4.64 41.664-13.76 56.608-9.44 15.392-22.24 27.744-39.136 37.76-18.048 10.784-40.576 20.192-67.136 28-28.32 8.256-59.744 15.744-93.408 22.368-29.152 6.176-49.824 10.816-62.272 14.016-13.824 3.488-27.584 8.448-40.672 14.592-14.752 6.72-26.976 15.328-35.968 25.44-10.336 11.68-15.552 25.504-15.616 41.12 0.064 24.768 13.856 45.6 40.928 62.016 44.736 26.944 140.928 31.104 184.416 0.544 18.56-12.928 34.624-31.072 47.616-53.792 8.768-13.76 15.296-20.544 19.168-23.616 6.272-5.12 28.16-5.888 39.296 4.736 6.336 6.048 9.28 12.128 9.28 19.136 0 10.144-3.328 21.088-10.016 32.48 18.496-31.424-23.328 92.672-211.776 97.76-95.872 2.56-153.344-46.816-173.408-94.144 5.44 12.864-66.848-94.976 69.952-159.328 27.968-13.12 65.408-21.344 108.384-29.792 34.752-6.656 61.888-12.832 82.72-18.88 23.52-6.72 43.264-16.832 58.464-30.016 17.568-15.008 26.528-34.656 26.528-58.432 0-29.632-15.36-54.304-45.696-73.312-27.456-17.216-62.88-26.016-105.344-26.016-95.104 0-138.496 77.728-128.96 66.144-10.496 12.736-15.904 39.808-24.512 57.984-5.056 11.008-10.784 19.008-17.184 23.968-4.736 3.68-10.528 5.44-18.080 5.44-10.144 0-18.016-2.528-24.032-7.776-5.344-4.64-7.776-9.792-8.128-15.904 3.616-33.632 32.704-185.536 232.48-183.936 236.224 1.792 215.808 189.152 215.872 164.832zM984.384 382.848c3.008 21.504 4.512 43.392 4.512 65.216 0 262.912-213.952 476.8-476.864 476.8-21.472 0-43.36-1.504-65.12-4.48-45.088 25.92-96.192 39.552-148.512 39.552-164.48 0-298.304-133.856-298.304-298.336 0-52.224 13.632-103.328 39.584-148.512-3.040-22.080-4.544-43.456-4.544-65.088 0-262.912 213.92-476.768 476.832-476.768 22.144 0 44.032 1.504 65.216 4.384 45.12-25.888 96.288-39.52 148.448-39.52 164.512 0 298.304 133.856 298.304 298.336 0.032 52.16-13.632 103.328-39.552 148.416zM725.632-12.736c-45.856 0-90.752 12.704-129.76 36.8l-8.096 4.928-9.408-1.44c-21.344-3.392-43.712-5.152-66.4-5.152-234.688 0-425.632 190.912-425.632 425.6 0 21.952 1.696 43.712 5.248 66.528l1.44 9.312-4.992 8.032c-24.032 39.008-36.736 83.872-36.736 129.76 0 136.288 110.848 247.136 247.104 247.136 45.952 0 90.816-12.704 129.76-36.768l8.032-4.96 9.344 1.44c22.208 3.456 44.576 5.216 66.464 5.216 234.72 0 425.696-190.944 425.696-425.632 0-22.272-1.76-44.64-5.248-66.4l-1.504-9.408 5.024-8.096c24.096-39.008 36.768-83.84 36.736-129.76 0-136.32-110.816-247.136-247.072-247.136z" />
<glyph unicode="&#xe62f;" glyph-name="web" horiz-adv-x="993" d="M983.505 542.549c-6.299 31.992-15.701 62.867-28.113 92.594-12.443 29.758-27.648 58.089-45.584 85.085s-38.726 52.286-62.309 75.869c-23.273 23.273-48.5 43.97-75.652 62.061s-55.606 33.296-85.333 45.584c-29.758 12.288-60.54 21.659-92.377 28.113-31.806 6.485-64.388 9.712-97.652 9.712-33.296 0-65.877-3.227-97.683-9.712-31.837-6.454-62.65-15.856-92.377-28.113s-58.182-27.462-85.333-45.552-52.379-38.788-75.652-62.061c-23.583-23.614-44.342-48.873-62.278-75.9s-33.14-55.327-45.584-85.085c-12.443-29.727-21.814-60.602-28.113-92.594s-9.464-64.481-9.464-97.466c0-33.296 3.165-65.846 9.464-97.683s15.67-62.65 28.113-92.377c12.443-29.727 27.648-58.182 45.584-85.333s38.695-52.379 62.309-75.652c23.273-23.614 48.5-44.466 75.652-62.557s55.606-33.296 85.333-45.584c29.727-12.288 60.509-21.566 92.377-27.865 31.837-6.299 64.388-9.464 97.683-9.464 33.264 0 65.846 3.165 97.683 9.464 31.806 6.299 62.619 15.608 92.377 27.865 29.727 12.288 58.182 27.493 85.333 45.584s52.379 38.943 75.652 62.557c23.583 23.273 44.373 48.5 62.309 75.652s33.109 55.606 45.584 85.333c12.412 29.727 21.814 60.509 28.113 92.377s9.402 64.388 9.402 97.683c0 32.985-3.165 65.474-9.464 97.466zM790.776 781.079c18.091-15.856 34.723-32.985 49.928-51.386 15.174-18.432 28.92-38.074 41.208-58.896 12.288-20.852 22.776-42.574 31.527-65.226-4.841 8.72-13.095 15.67-24.731 20.852s-25.383 10.519-41.208 16.012c-17.16 5.834-29.665 16.725-37.578 32.737-7.944 16.012-15.453 34.195-22.559 54.551-6.144 17.47-13.033 34.661-20.604 51.634-7.602 16.974-18.835 31.123-33.699 42.418 20.387-12.629 39.595-26.841 57.716-42.698zM723.875 755.883c5.834-13.25 11.295-27.493 16.477-42.667 4.189-11.636 8.533-23.366 13.095-35.157 4.53-11.792 10.178-23.024 16.974-33.699s15.081-20.263 24.979-28.858c9.837-8.564 21.876-15.267 36.119-20.108 3.879-1.303 8.72-3.010 14.553-5.089s11.14-4.127 16.012-6.051c-4.22-4.22-9.464-9.123-15.763-14.801s-12.691-11.543-19.146-17.687c-4.22-3.537-8.72-7.509-13.591-11.885s-10.023-8.968-15.515-13.808c-15.515-14.212-23.862-29.231-24.979-45.087-1.148-15.856-0.9-31.030 0.714-45.584 1.955-16.818 1.986-34.32 0.248-52.596-1.8-18.277-13.188-39.191-34.195-62.774-5.523-6.144-10.116-13.498-13.808-22.063-3.724-8.564-7.354-17.532-10.923-26.903-8.099-21.659-18.122-41.053-30.068-58.182-11.978-17.129-34.133-25.848-66.436-26.19-0.962 0.962-2.607 4.034-4.841 9.216-2.265 5.182-4.53 14.212-6.796 27.152-2.265 11.978-4.127 25.445-5.585 40.495s-2.855 30.782-4.127 47.259c-0.962 12.288-2.017 25.072-3.165 38.291-1.148 13.25-2.42 26.5-3.879 39.75s-3.32 26.345-5.585 39.284c-2.265 12.94-5.027 25.228-8.254 36.864-7.758 30.379-18.37 54.551-31.744 72.487-13.436 17.936-29.975 30.161-49.711 36.616-8.409 2.917-16.974 5.089-25.693 6.547s-17.78 2.172-27.152 2.172c-6.796 0-13.343-0.341-19.642-0.962s-12.226-1.303-17.687-1.955c-4.22-0.652-8.347-1.117-12.35-1.458-4.034-0.341-7.851-0.496-11.388-0.496-5.834 0-12.040 1.552-18.68 4.592-6.64 3.072-13.995 13.808-22.063 32.24-5.834 13.591-9.061 28.703-9.712 45.335s1.458 33.358 6.299 50.176 12.691 32.985 23.521 48.5c10.83 15.515 24.793 28.951 41.953 40.246 18.742 12.288 34.971 21.256 48.718 26.903 13.715 5.679 26.252 8.471 37.578 8.471 9.371 0 19.301-1.707 29.82-5.089 10.488-3.382 22.838-8.813 37.081-16.229 16.787-9.061 31.744-14.708 44.839-16.974s24.297-3.382 33.699-3.382c3.879 0 7.509 0.093 10.923 0.248s6.703 0.403 9.93 0.714c2.917 0 5.648 0.093 8.254 0.248 2.576 0.155 5.151 0.248 7.758 0.248 5.492 0 10.581-0.496 15.267-1.458 4.655-0.962 9.619-3.227 14.801-6.796 9.464-6.796 17.067-16.818 22.869-30.068zM84.123 384.481c-5.679-10.674-7.044-21.969-4.127-33.947 2.265-8.099 2.731-16.88 1.458-26.438-1.303-9.557-3.382-18.804-6.299-27.865-8.409 23.273-14.801 47.352-19.146 72.239s-6.547 50.424-6.547 76.614v3.382h0.496c2.576-0.341 5.337-0.714 8.254-1.21s5.834-1.055 8.72-1.707c13.902-3.227 24.39-6.051 31.527-8.471 7.106-2.42 12.133-4.468 15.019-6.051-1.303-2.576-3.072-5.585-5.337-8.968s-4.375-6.206-6.299-8.471c-6.175-8.751-12.071-18.432-17.718-29.106zM908.35 271.034c-23.459-54.303-55.451-101.655-96.008-142.057-40.588-40.401-87.94-72.332-142.057-95.76-54.148-23.428-112.081-35.157-173.801-35.157-42.667 0-83.565 5.741-122.663 17.222-39.129 11.481-75.652 27.555-109.568 48.252s-64.636 45.49-92.129 74.411c-27.493 28.951-50.579 60.85-69.322 95.76 6.454 12.288 13.808 30.627 22.063 55.017s9.464 48.562 3.631 72.487c0.652 2.576 2.513 6.299 5.585 11.14s5.896 9.061 8.471 12.598c6.796 9.371 13.002 19.89 18.68 31.527 5.648 11.636 5.399 23.769-0.714 36.368-4.53 8.72-12.94 16.229-25.228 22.559-12.288 6.299-29.913 12.040-52.845 17.222-5.182 1.303-10.271 2.42-15.267 3.382-5.027 0.962-9.775 1.8-14.305 2.42 6.796 55.265 22.931 106.899 48.5 154.903 25.538 48.004 58.089 89.616 97.683 124.835 39.595 35.25 84.744 62.929 135.509 83.161 50.735 20.232 104.696 30.317 161.916 30.317 19.704 0 39.036-1.21 57.934-3.631s37.392-6.051 55.513-10.923c18.091-4.841 35.685-10.674 52.845-17.47 17.129-6.765 33.761-14.677 49.959-23.738-8.099 3.537-15.701 5.834-22.776 6.796-7.106 0.962-13.436 1.458-18.897 1.458-3.227 0-6.392-0.062-9.464-0.248-3.103-0.155-6.237-0.403-9.464-0.714-2.917 0-5.896-0.093-8.968-0.248-3.103-0.155-6.051-0.248-8.968-0.248-7.106 0-15.205 0.807-24.235 2.42-9.061 1.645-19.394 5.492-31.030 11.636-18.122 9.712-34.257 16.632-48.5 20.852-14.212 4.22-28.113 6.299-41.705 6.299-16.477 0-33.792-3.382-51.883-10.178s-38.633-17.78-61.564-32.985c-20.046-13.25-37.329-29.665-51.883-49.214s-25.538-41.115-32.985-64.729c-7.106-22.621-10.333-45.335-9.681-68.112s5.337-43.877 14.057-63.271c10.023-23.273 21.969-40.246 35.871-50.921s30.689-16.012 50.424-16.012c4.841 0 9.712 0.155 14.553 0.496s9.837 0.807 15.019 1.458c5.182 0.652 10.333 1.21 15.515 1.707s10.488 0.714 16.012 0.714c6.796 0 13.157-0.496 19.146-1.458 5.958-0.962 12.040-2.42 18.184-4.375 10.985-3.537 20.511-11.481 28.61-23.769 8.068-12.288 14.864-29.231 20.356-50.921 2.917-10.674 5.399-21.969 7.509-33.947 2.079-11.978 3.879-24.235 5.337-36.864s2.669-25.228 3.631-37.826 1.955-25.072 2.917-37.329c1.614-20.046 3.382-39.191 5.337-57.468 1.955-18.246 4.53-34.661 7.758-49.214 1.955-8.72 4.189-16.384 6.796-23.024 2.576-6.64 5.648-12.35 9.216-17.222 4.841-7.416 10.736-13.095 17.687-16.974s14.46-5.834 22.559-5.834c21.628 0 41.208 3.537 58.678 10.674s32.644 17.594 45.584 31.527c10.333 11.636 18.494 24.142 24.483 37.578 5.958 13.436 11.202 25.786 15.763 37.081 2.576 6.796 5.151 13.343 7.758 19.642 2.576 6.299 5.151 10.923 7.758 13.808 13.871 15.856 24.39 31.030 31.527 45.584 7.106 14.553 11.885 28.207 14.305 40.96s3.382 24.824 2.917 36.119-1.396 21.659-2.669 31.030c-1.645 14.212-2.017 24.576-1.21 31.030 0.776 6.454 3.941 12.288 9.464 17.47 5.151 4.841 10.178 9.371 15.019 13.591s9.371 8.254 13.591 12.133c9.030 8.099 16.88 15.112 23.521 21.101 6.609 5.958 12.195 11.543 16.725 16.725 2.917 3.227 6.951 8.626 12.133 16.229 4.934 7.323 6.454 15.794 4.872 25.321 8.409-23.118 14.895-46.98 19.363-71.649 4.53-25.228 6.796-51.076 6.796-77.576-0.093-61.626-11.823-119.653-35.25-173.956z" />
<glyph unicode="&#xe630;" glyph-name="bullhorn" d="M992.717 801.331c-29.594 88.832-68.915 107.469-96.717 107.469-0.563 0-1.178 0-1.792-0.051-28.314-0.614-78.643-15.309-154.010-37.427-157.901-46.234-396.493-116.173-637.85-116.173-58.368 0-102.4-77.056-102.4-179.2s44.032-179.2 102.4-179.2c18.893 0 37.786-0.41 56.576-1.229l85.299-339.354c9.728-38.707 48.589-69.018 88.525-69.018h67.226c22.17 0 41.011 9.216 51.61 25.344s11.725 37.018 3.072 57.395l-131.942 309.658c160.563-23.654 308.326-66.97 417.485-98.918 75.366-22.067 125.696-36.813 154.010-37.427 0.614 0 1.178-0.051 1.792-0.051 27.75 0 67.072 18.637 96.717 107.469 20.173 60.57 31.283 140.595 31.283 225.331s-11.11 164.762-31.283 225.331zM819.2 576c0 26.266 1.126 51.968 3.277 76.595 26.266-2.662 47.923-36.659 47.923-76.595s-21.606-73.984-47.923-76.595c-2.15 24.627-3.277 50.33-3.277 76.595zM51.2 576c0 78.131 30.31 128 51.2 128 58.112 0 115.917 3.891 172.442 10.445-12.134-38.81-18.842-86.886-18.842-138.445s6.656-99.635 18.842-138.445c-56.525 6.554-114.33 10.445-172.442 10.445-20.89 0-51.2 49.869-51.2 128zM407.603 49.869c2.099-4.915 1.946-8.192 1.331-9.114s-3.533-2.355-8.909-2.355h-67.226c-16.333 0-34.867 14.438-38.861 30.31l-81.306 323.533c17.152-1.382 34.253-3.021 51.2-4.966l143.77-337.408zM332.237 429.926c-15.565 35.174-25.037 89.498-25.037 146.074 0 57.446 9.216 110.746 24.986 146.022 163.072 24.218 312.115 67.84 422.4 100.198 21.248 6.246 41.523 12.186 59.955 17.357-5.274-11.008-10.394-23.706-15.258-38.246-20.173-60.57-31.283-140.595-31.283-225.331s11.11-164.762 31.283-225.331c4.864-14.541 9.984-27.238 15.258-38.246-18.432 5.171-38.707 11.11-59.955 17.357-110.336 32.307-259.328 75.981-422.4 100.198zM944.128 366.848c-19.098-57.344-39.834-72.448-48.128-72.448s-29.030 15.155-48.128 72.448c-8.038 24.064-14.49 51.661-19.2 81.715 24.883 2.867 48.282 16.947 65.331 39.68 17.818 23.757 27.597 54.938 27.597 87.757s-9.83 64.051-27.597 87.757c-17.050 22.733-40.448 36.813-65.331 39.68 4.762 30.003 11.213 57.651 19.2 81.715 19.098 57.344 39.834 72.499 48.128 72.499s29.030-15.155 48.128-72.448c18.483-55.501 28.672-129.741 28.672-209.152s-10.189-153.651-28.672-209.152z" />
<glyph unicode="&#xe631;" glyph-name="clock" d="M835.584 83.814c88.525 91.238 137.216 211.149 137.216 338.586 0 121.344-44.134 235.93-124.826 325.376l35.226 35.226 33.126-33.075c5.018-5.018 11.571-7.475 18.074-7.475s13.107 2.509 18.074 7.475c9.984 9.984 9.984 26.214 0 36.198l-102.4 102.4c-9.984 9.984-26.214 9.984-36.198 0s-9.984-26.214 0-36.198l33.126-33.075-35.226-35.226c-89.446 80.691-204.032 124.826-325.376 124.826s-235.93-44.134-325.376-124.826l-35.226 35.226 33.075 33.075c9.984 9.984 9.984 26.214 0 36.198s-26.214 9.984-36.198 0l-102.4-102.4c-9.984-9.984-9.984-26.214 0-36.198 5.018-5.018 11.571-7.475 18.125-7.475s13.107 2.509 18.125 7.475l33.075 33.075 35.226-35.226c-80.691-89.446-124.826-204.032-124.826-325.376 0-127.437 48.691-247.347 137.216-338.586l-104.141-104.141c-9.984-9.984-9.984-26.214 0-36.198 5.018-5.018 11.571-7.526 18.125-7.526s13.107 2.509 18.125 7.526l105.472 105.421c87.296-73.114 196.403-112.947 311.654-112.947s224.358 39.834 311.654 112.947l105.421-105.421c5.018-5.018 11.571-7.526 18.125-7.526s13.107 2.509 18.074 7.526c9.984 9.984 9.984 26.214 0 36.198l-104.141 104.141zM51.2 422.4c0 239.974 195.226 435.2 435.2 435.2s435.2-195.226 435.2-435.2c0-239.974-195.226-435.2-435.2-435.2s-435.2 195.226-435.2 435.2zM774.605 588.8c-7.066 12.237-22.733 16.435-34.97 9.37l-251.904-145.459-196.352 137.472c-11.571 8.090-27.546 5.274-35.635-6.298s-5.274-27.546 6.298-35.635l209.715-146.842c0.051-0.051 0.102-0.051 0.102-0.102 0.461-0.307 0.922-0.614 1.382-0.87 0.102-0.051 0.205-0.154 0.307-0.205 0.461-0.256 0.922-0.512 1.382-0.768 0.102-0.051 0.205-0.102 0.307-0.154 0.512-0.256 1.024-0.461 1.587-0.717 0.307-0.154 0.666-0.256 0.973-0.358 0.205-0.051 0.41-0.154 0.666-0.256 0.358-0.102 0.717-0.205 1.075-0.307 0.205-0.051 0.41-0.102 0.614-0.154 0.358-0.102 0.717-0.154 1.126-0.256 0.205-0.051 0.41-0.102 0.614-0.102 0.358-0.051 0.717-0.102 1.075-0.154 0.256-0.051 0.512-0.051 0.768-0.102 0.307-0.051 0.614-0.051 0.922-0.102 0.461-0.051 0.922-0.051 1.382-0.051 0.102 0 0.205 0 0.307 0 0 0 0 0 0 0s0 0 0.051 0c0.973 0 1.894 0.051 2.867 0.154 0.051 0 0.102 0 0.154 0 0.922 0.102 1.843 0.256 2.765 0.512 0.102 0 0.154 0.051 0.256 0.051 0.87 0.205 1.741 0.461 2.56 0.768 0.154 0.051 0.307 0.102 0.41 0.154 0.819 0.307 1.587 0.614 2.355 1.024 0.205 0.102 0.358 0.205 0.563 0.307 0.256 0.154 0.563 0.256 0.819 0.41l266.035 153.6c12.237 7.066 16.435 22.733 9.37 34.97z" />
<glyph unicode="&#xe632;" glyph-name="film-play" d="M384 192c-3.891 0-7.834 0.87-11.469 2.714-8.653 4.352-14.131 13.21-14.131 22.886v460.8c0 9.677 5.478 18.586 14.131 22.886s19.046 3.379 26.829-2.406l307.2-230.4c6.451-4.813 10.24-12.442 10.24-20.48s-3.789-15.667-10.24-20.48l-307.2-230.4c-4.506-3.379-9.933-5.12-15.36-5.12zM409.6 627.2v-358.4l238.95 179.2-238.95 179.2zM998.4 857.6h-972.8c-14.131 0-25.6-11.469-25.6-25.6v-768c0-14.131 11.469-25.6 25.6-25.6h972.8c14.131 0 25.6 11.469 25.6 25.6v768c0 14.131-11.469 25.6-25.6 25.6zM153.6 396.8h-102.4v102.4h102.4v-102.4zM153.6 550.4h-102.4v102.4h102.4v-102.4zM51.2 345.6h102.4v-102.4h-102.4v102.4zM204.8 806.4h614.4v-716.8h-614.4v716.8zM870.4 499.2h102.4v-102.4h-102.4v102.4zM870.4 550.4v102.4h102.4v-102.4h-102.4zM870.4 345.6h102.4v-102.4h-102.4v102.4zM972.8 704h-102.4v102.4h102.4v-102.4zM153.6 806.4v-102.4h-102.4v102.4h102.4zM51.2 192h102.4v-102.4h-102.4v102.4zM870.4 89.6v102.4h102.4v-102.4h-102.4z" />
<glyph unicode="&#xe633;" glyph-name="category" horiz-adv-x="834" d="M826.558 951.543c-5.423 5.461-11.871 8.192-19.494 8.192h-779.681c-7.471 0-13.881-2.731-19.191-8.192s-8.002-11.985-8.002-19.608v-967.566c0-5.803 1.669-11.188 5.044-16.081 3.375-4.93 7.737-8.306 13.084-10.126 5.348-2.162 10.771-2.503 16.27-1.062s10.050 4.361 13.577 8.685l374.86 377.325 362.875-377.325c2.882-2.882 6.144-5.196 9.785-6.827 3.603-1.631 7.396-2.427 11.378-2.427 1.82 0 3.527 0.114 5.158 0.265 1.631 0.19 3.148 0.683 4.589 1.365 5.423 1.82 9.747 5.196 13.009 10.126 3.224 4.892 4.855 10.278 4.855 16.081v967.566c0 7.623-2.655 14.184-8.116 19.608zM758.519 87.704l-314.52 333.521c-2.882 2.844-6.106 5.196-9.671 7.016-3.603 1.783-7.358 2.655-11.264 2.655-3.944 0-7.813-0.872-11.567-2.655-3.755-1.82-6.903-4.134-9.406-7.016l-326.239-333.521v796.444h682.667v-796.444z" />
<glyph unicode="&#xe634;" glyph-name="teacher" horiz-adv-x="1130" d="M1094.621 854.069l-1067.75 0.353c-14.618 0-26.483-11.158-26.483-24.964v-550.347c0-13.806 20.868-25.318 34.922-25.318 14.018 0 35.31 21.327 35.31 35.31v494.345h988.69v-706.207h-353.103c-14.054 0-13.736-21.645-13.736-35.628s-0.318-34.993 13.736-34.993h388.414c14.018 0 35.24 21.045 35.24 34.993v778.699c0 13.948-21.222 33.757-35.24 33.757zM819.165 292.070c-9.534 10.24-25.635 10.876-35.946 1.412l-188.522-173.268-9.039 22.175c-30.19 73.975-83.721 171.714-201.34 176.446-0.989 0.141-2.013 0.177-3.001 0.177 0 0-118.396-1.448-107.908-0.177-117.583-4.732-171.114-102.471-201.304-176.446l-36.793-100.458c-1.907-4.661-6.638-18.891-11.264-35.31h60.698l56.497 141.241c38.524 76.871 89.123 102.894 105.931 105.931l35.31-35.31-35.31-211.862 70.621-70.621 70.621 70.621-35.31 211.862 35.31 35.31c58.756-9.64 104.907-52.224 141.241-141.241 0 0 42.62-96.362 70.621-70.621l217.476 214.369c10.311 9.498 10.946 25.494 1.412 35.769zM643.99 559.651c0-13.948 11.37-25.282 25.423-25.282h48.481c14.018 0 25.423 11.335 25.423 25.282 0 14.018-23.093 11.935-37.111 11.935h-35.31c-14.054 0-26.906 2.083-26.906-11.935zM459.034 889.379h247.172c37.747 0 44.491 71.009-0.671 71.009l-246.502-0.388c-44.668 0-44.668-70.621 0-70.621zM953.379 571.586h-105.931c-14.054 0-36.829 2.083-36.829-11.935 0-13.948 11.37-25.282 25.423-25.282h130.507c14.018 0 25.423 11.335 25.423 25.282 0 14.018-24.576 11.935-38.594 11.935zM953.379 677.517h-247.172c-14.054 0-26.094 1.624-26.094-12.359s11.37-25.282 25.423-25.282h261.049c14.018 0 25.423 11.299 25.423 25.282s-24.611 12.359-38.63 12.359zM468.78 504.497c0 66.948-47.81 123.021-111.298 136.192-0.53 0.141-1.024 0.247-1.518 0.318-8.757 1.73-17.796 2.613-27.083 2.613-77.153 0-139.9-62.429-139.9-139.123s62.782-139.123 139.9-139.123c77.153-0.035 139.9 62.393 139.9 139.123zM239.828 504.497c0 32.344 17.549 60.734 43.644 76.164-2.86-6.886-2.613-14.972 1.377-21.963 6.85-12.217 22.351-16.525 34.604-9.675 16.914 9.463 31.567 22.21 43.185 37.464 32.415-13.241 55.296-44.985 55.296-81.955 0-48.834-39.971-88.594-89.053-88.594s-89.053 39.724-89.053 88.558z" />
<glyph unicode="&#xe635;" glyph-name="plus-circle" d="M830.362 766.362c-91.853 91.853-214.016 142.438-343.962 142.438s-252.058-50.586-343.962-142.438-142.438-214.016-142.438-343.91 50.586-252.058 142.438-343.962 214.016-142.438 343.962-142.438 252.058 50.586 343.962 142.438 142.438 214.016 142.438 343.962-50.586 252.058-142.438 343.91zM486.4-12.8c-239.974 0-435.2 195.226-435.2 435.2s195.226 435.2 435.2 435.2c239.974 0 435.2-195.226 435.2-435.2s-195.226-435.2-435.2-435.2zM793.6 448h-281.6v281.6c0 14.131-11.469 25.6-25.6 25.6s-25.6-11.469-25.6-25.6v-281.6h-281.6c-14.131 0-25.6-11.469-25.6-25.6s11.469-25.6 25.6-25.6h281.6v-281.6c0-14.131 11.469-25.6 25.6-25.6s25.6 11.469 25.6 25.6v281.6h281.6c14.131 0 25.6 11.469 25.6 25.6s-11.469 25.6-25.6 25.6z" />
</font>
</defs>
</svg>
